HDTV Britney Spears – In The Zone (2003 ABC Special) HDTV 1080i MPEG2

Discussion in 'HD Live Performances' started by nitrocell, Sep 9, 2014.

  1. nitrocell

    nitrocell
    Administrator
    Staff Member AdMiN Capper

    Joined:
    Nov 18, 2013
    Messages:
    855
    Likes Received:
    6,592
    [​IMG]


    Setlist:
    Toxic
    Breathe On Me
    Boys / Slave 4 U
    Boom Boom
    EveryTime
    Baby One More Time
    Me Against The Music

    Mediainfo:

    Format : MPEG-PS
    File size : 3.77 GiB
    Duration : 40mn 49s
    Overall bit rate mode : Variable
    Overall bit rate : 13.2 Mbps

    Video
    ID : 224 (0xE0)
    Format : MPEG Video
    Format version : Version 2
    Format profile : Main@High
    Format settings, BVOP : Yes
    Format settings, Matrix : Custom
    Format settings, GOP : M=3, N=12
    Duration : 40mn 49s
    Bit rate mode : Variable
    Bit rate : 12.8 Mbps
    Width : 1 440 pixels
    Height : 1 088 pixels
    Display aspect ratio : 16:9
    Frame rate : 25.000 fps
    Color space : YUV
    Chroma subsampling : 4:2:0
    Bit depth : 8 bits
    Scan type : Interlaced
    Scan order : Top Field First
    Compression mode : Lossy
    Bits/(Pixel*Frame) : 0.327
    Time code of first frame : 00:00:00:00
    Time code source : Group of pictures header
    Stream size : 3.62 GiB (96%)

    Audio
    ID : 189 (0xBD)-128 (0x80)
    Format : AC-3
    Format/Info : Audio Coding 3
    Mode extension : CM (complete main)
    Format settings, Endianness : Big
    Muxing mode : DVD-Video
    Duration : 40mn 49s
    Bit rate mode : Constant
    Bit rate : 256 Kbps
    Channel(s) : 2 channels
    Channel positions : Front: L R
    Sampling rate : 48.0 KHz
    Bit depth : 16 bits
    Compression mode : Lossy
    Stream size : 74.8 MiB (2%)


    Hidden Content:
    You must reply before you can see the hidden data contained here.
     
  2. Loading...


  3. multimediafm

    multimediafm Well-Known Member Donor

    Joined:
    Mar 27, 2014
    Messages:
    12,883
    Likes Received:
    1,013
  4. alex

    alex Well-Known Member

    Joined:
    Nov 21, 2013
    Messages:
    4,581
    Likes Received:
    391
    :victory:
     
  5. alex

    alex Well-Known Member

    Joined:
    Nov 21, 2013
    Messages:
    4,581
    Likes Received:
    391
    :victory:
     
  6. rhea

    rhea Well-Known Member

    Joined:
    Jan 6, 2014
    Messages:
    7,848
    Likes Received:
    1,002
    thank you :)
     
  7. Valentina

    Valentina Member

    Joined:
    Oct 25, 2013
    Messages:
    515
    Likes Received:
    15
    thanks!
     
  8. Angel

    Angel J.LO & Beyoncé Fan Staff Member Super Moderator Capper V . I . P.

    Joined:
    Jan 31, 2014
    Messages:
    2,005
    Likes Received:
    12,233
    coo
     
  9. channel003

    channel003 Well-Known Member

    Joined:
    Nov 23, 2013
    Messages:
    697
    Likes Received:
    355
     
  10. Jawni

    Jawni Active Member

    Joined:
    Jan 24, 2014
    Messages:
    958
    Likes Received:
    31
    Thanks a lot!
     
  11. adam dark

    adam dark Video Music Lover <3 V . I . P.

    Joined:
    Dec 5, 2013
    Messages:
    2,641
    Likes Received:
    5,481
  12. Chris

    Chris Active Member

    Joined:
    Oct 19, 2013
    Messages:
    753
    Likes Received:
    26
    Thank you
     
  13. OERB

    OERB Member

    Joined:
    Jan 30, 2014
    Messages:
    179
    Likes Received:
    11
    Thankkkkkkkk u
     
  14. vkangelo

    vkangelo Member

    Joined:
    Jul 5, 2014
    Messages:
    131
    Likes Received:
    7
    thank you so much
     
  15. piculya

    piculya Member

    Joined:
    Apr 10, 2014
    Messages:
    538
    Likes Received:
    12
  16. darren

    darren Member

    Joined:
    May 26, 2014
    Messages:
    109
    Likes Received:
    2
    thanx
     
  17. brit

    brit Member

    Joined:
    Dec 14, 2013
    Messages:
    293
    Likes Received:
    5
    thanks
     
  18. piculya

    piculya Member

    Joined:
    Apr 10, 2014
    Messages:
    538
    Likes Received:
    12
  19. 江雨燃双鱼

    江雨燃双鱼 Active Member

    Joined:
    Apr 5, 2014
    Messages:
    614
    Likes Received:
    48
  20. Amauri Luiz

    Amauri Luiz Well-Known Member

    Joined:
    Jan 14, 2014
    Messages:
    1,813
    Likes Received:
    72
    Thank you!
     
  21. paul

    paul Member

    Joined:
    Dec 29, 2013
    Messages:
    239
    Likes Received:
    7
    thanks