Bridgit Mendler - This is My Paradise 720p HDTV DD5.1 MPEG2-TrollHD

Discussion in 'MUSIC CHOICE' started by rgf72k, Oct 22, 2013.

  1. rgf72k

    rgf72k Founder Staff Member AdMiN

    Joined:
    Oct 1, 2013
    Messages:
    1,020
    Likes Received:
    14,931
    [​IMG]

    Code:
          Complete name : Bridgit Mendler - This is My Paradise 720p HDTV DD5.1 MPEG2-TrollHD.ts
          Format : MPEG-TS
          File size : 284 MiB
          Duration : 2mn 34s
          Overall bit rate mode : Variable
          Overall bit rate : 15.4 Mbps
      Video #33
          ID : 33 (0x21)
          Menu ID : 1 (0x1)
          Format : MPEG Video
          Commercial name : HDV 720p
          Format version : Version 2
          Format profile : [email protected]
          Format settings, BVOP : Yes
          Format settings, Matrix : Custom
          Format settings, GOP : Variable
          Codec ID : 2
          Duration : 2mn 34s
          Bit rate mode : Variable
          Bit rate : 14.3 Mbps
          Maximum bit rate : 18.0 Mbps
          Width : 1 280 pixels
          Height : 720 pixels
          Display aspect ratio : 16:9
          Frame rate : 59.940 fps
          Color space : YUV
          Chroma subsampling : 4:2:0
          Bit depth : 8 bits
          Scan type : Progressive
          Compression mode : Lossy
          Bits/(Pixel*Frame) : 0.258
          Time code of first frame : 00:00:00;00
          Time code source : Group of pictures header
          Stream size : 263 MiB (92%)
      Audio #36
          ID : 36 (0x24)
          Menu ID : 1 (0x1)
          Format : AC-3
          Format/Info : Audio Coding 3
          Mode extension : CM (complete main)
          Format settings, Endianness : Big
          Codec ID : 129
          Duration : 2mn 34s
          Bit rate mode : Constant
          Bit rate : 384 Kbps
          Channel(s) : 6 channels
          Channel positions : Front: L C R, Side: L R, LFE
          Sampling rate : 48.0 KHz
          Bit depth : 16 bits
          Compression mode : Lossy
          Stream size : 7.08 MiB (2%)
          Language : English


    Download:
    Hidden Content:
    You must either reply or click 'Like' to see the hidden information contained here.


    Password: sharemania.net


    Capper: TrollHD
     
    konkydong, Vinny, johymbim and 7 others like this.
  2. rhea

    rhea Well-Known Member

    Joined:
    Jan 6, 2014
    Messages:
    5,870
    Likes Received:
    434
    thank you so much :)
     
  3. 3veronicas

    3veronicas Active Member

    Joined:
    Aug 26, 2016
    Messages:
    922
    Likes Received:
    35
    Thanks!