Brad Paisley - Perfect Storm (CMTHD) 1080i H.264 DD2.0-HDMania

Discussion in 'CMT HD' started by RGF72K, Jan 25, 2015.

  1. RGF72K

    RGF72K ????? Staff Member Super Moderator

    Joined:
    Oct 1, 2013
    Messages:
    1,020
    Likes Received:
    14,777
    [​IMG] [​IMG] [​IMG] [​IMG] [​IMG] [​IMG] [​IMG] [​IMG] [​IMG]

    General
    ID : 1 (0x1)
    Complete name : Brad Paisley - Perfect Storm (CMTHD) 1080i H.264 DD2.0-HDMania.ts
    Format : MPEG-TS
    File size : 397 MiB
    Duration : 3mn 53s
    Overall bit rate mode : Variable
    Overall bit rate : 14.2 Mbps

    Video
    ID : 4113 (0x1011)
    Menu ID : 1 (0x1)
    Format : AVC
    Format/Info : Advanced Video Codec
    Format profile : [email protected]
    Format settings, CABAC : Yes
    Format settings, ReFrames : 4 frames
    Format settings, GOP : M=4, N=32
    Codec ID : 27
    Duration : 3mn 53s
    Bit rate mode : Variable
    Bit rate : 13.1 Mbps
    Maximum bit rate : 20.0 Mbps
    Width : 1 920 pixels
    Height : 1 080 pixels
    Display aspect ratio : 16:9
    Frame rate : 29.970 fps
    Color space : YUV
    Chroma subsampling : 4:2:0
    Bit depth : 8 bits
    Scan type : Interlaced
    Scan order : Top Field First
    Bits/(Pixel*Frame) : 0.211
    Stream size : 366 MiB (92%)
    Color primaries : BT.709
    Transfer characteristics : BT.709
    Matrix coefficients : BT.709
    Color range : Limited

    Audio
    ID : 4352 (0x1100)
    Menu ID : 1 (0x1)
    Format : AC-3
    Format/Info : Audio Coding 3
    Mode extension : CM (complete main)
    Format settings, Endianness : Big
    Codec ID : 129
    Duration : 3mn 53s
    Bit rate mode : Constant
    Bit rate : 384 Kbps
    Channel(s) : 2 channels
    Channel positions : Front: L R
    Sampling rate : 48.0 KHz
    Bit depth : 16 bits
    Compression mode : Lossy
    Stream size : 10.7 MiB (3%)
    Language : English


    Download:
    Hidden Content:
    You must either reply or click 'Like' to see the hidden information contained here.


    Capped by Me :victory:
     
  2. rhea

    rhea Well-Known Member

    Joined:
    Jan 6, 2014
    Messages:
    5,659
    Likes Received:
    365
    thanks a lot!
     
  3. dgnio

    dgnio Well-Known Member

    Joined:
    Jul 7, 2014
    Messages:
    1,633
    Likes Received:
    329
    thanks thanks thanks very very much!!!great!
     
  4. multimediafm

    multimediafm Well-Known Member Donor

    Joined:
    Mar 27, 2014
    Messages:
    8,580
    Likes Received:
    366
    Thanks :love:
    Brad Paisley - Perfect Storm (CMTHD) 1080i H.264 DD2.0-HDMania
     
  5. yellowstone

    yellowstone Member

    Joined:
    Apr 9, 2016
    Messages:
    58
    Likes Received:
    3
    Fantastic. Thank you for this upload.
     
    musicmp3 likes this.
  6. musicmp3

    musicmp3 New Member

    Joined:
    Oct 28, 2016
    Messages:
    2
    Likes Received:
    0
    thanks