Bonnie Tyler - Holding Out For A Hero (PARAMOUNTHD-1080i-DD2.0-Crusha)

Discussion in 'PARAMOUNT' started by Crusha, Mar 23, 2016.

  1. Crusha

    Crusha Well-Known Member Capper

    Joined:
    Oct 15, 2014
    Messages:
    2,350
    Likes Received:
    2,139
    [​IMG]

    Mediainfo
    General
    ID : 1 (0x1)
    Complete name : Bonnie Tyler - Holding Out For A Hero (PARAMOUNT.HD.1080i.DD2.0).-Crusha.ts
    Format : MPEG-TS
    File size : 120 MiB
    Duration : 4mn 43s
    Overall bit rate mode : Variable
    Overall bit rate : 3 543 Kbps

    Video
    ID : 2834 (0xB12)
    Menu ID : 1523 (0x5F3)
    Format : AVC
    Format/Info : Advanced Video Codec
    Format profile : [email protected]
    Format settings, CABAC : Yes
    Format settings, ReFrames : 4 frames
    Codec ID : 27
    Duration : 4mn 43s
    Bit rate : 3 174 Kbps
    Width : 1 920 pixels
    Height : 1 080 pixels
    Display aspect ratio : 16:9
    Frame rate : 29.970 fps
    Standard : Component
    Color space : YUV
    Chroma subsampling : 4:2:0
    Bit depth : 8 bits
    Scan type : MBAFF
    Scan order : Top Field First
    Bits/(Pixel*Frame) : 0.051
    Stream size : 107 MiB (90%)
    Color range : Limited
    Color primaries : BT.709
    Transfer characteristics : BT.709
    Matrix coefficients : BT.709

    Audio
    ID : 3760 (0xEB0)
    Menu ID : 1523 (0x5F3)
    Format : AC-3
    Format/Info : Audio Coding 3
    Mode extension : CM (complete main)
    Format settings, Endianness : Big
    Codec ID : 6
    Duration : 4mn 43s
    Bit rate mode : Constant
    Bit rate : 192 Kbps
    Channel(s) : 2 channels
    Channel positions : Front: L R
    Sampling rate : 48.0 KHz
    Bit depth : 16 bits
    Compression mode : Lossy
    Delay relative to video : -100ms
    Stream size : 6.49 MiB (5%)
    Language : Spanish
    Hidden Content:
    You must reply before you can see the hidden data contained here.
    Password: crusha
     
    KyloRen945 and tequest like this.
  2. Loading...


  3. Snorom6

    Snorom6 Well-Known Member Uploader

    Joined:
    Dec 17, 2015
    Messages:
    4,246
    Likes Received:
    3,592
  4. PedroCorrea

    PedroCorrea Active Member

    Joined:
    Aug 21, 2014
    Messages:
    357
    Likes Received:
    26
  5. tapions

    tapions Active Member

    Joined:
    Aug 30, 2016
    Messages:
    761
    Likes Received:
    53
    gracias
     
  6. BillyTaylor

    BillyTaylor Member

    Joined:
    Nov 27, 2016
    Messages:
    86
    Likes Received:
    0
  7. Lucky

    Lucky Member

    Joined:
    Sep 26, 2016
    Messages:
    248
    Likes Received:
    11
    thanks