Bon Jovi - Runaway (MTVPulse-1080i-DD2.0)-Olgold

Discussion in 'MTV PULSE HD' started by Olgold, Aug 25, 2015.

  1. Olgold

    Olgold Well-Known Member Capper

    Joined:
    Aug 19, 2015
    Messages:
    386
    Likes Received:
    1,303
    [​IMG]
    General
    Format : MPEG-TS
    File size : 208 MiB
    Duration : 4mn 5s
    Overall bit rate mode : Variable
    Overall bit rate : 7 084 Kbps

    Video
    Format : AVC
    Format/Info : Advanced Video Codec
    Format profile : [email protected]
    Format settings, CABAC : Yes
    Format settings, ReFrames : 4 frames
    Duration : 4mn 6s
    Bit rate : 6 475 Kbps
    Width : 1 920 pixels
    Height : 1 080 pixels
    Display aspect ratio : 16:9
    Frame rate : 25.000 fps
    Standard : Component
    Color space : YUV
    Chroma subsampling : 4:2:0
    Bit depth : 8 bits
    Scan type : MBAFF
    Scan order : Top Field First
    Bits/(Pixel*Frame) : 0.125
    Stream size : 190 MiB (92%)
    Color range : Limited

    Audio
    Format : AC-3
    Format/Info : Audio Coding 3
    Mode extension : CM (complete main)
    Format settings, Endianness : Big
    Duration : 4mn 6s
    Bit rate mode : Constant
    Bit rate : 256 Kbps
    Channel(s) : 2 channels
    Channel positions : Front: L R
    Sampling rate : 48.0 KHz
    Compression mode : Lossy
    Delay relative to video : 32ms
    Stream size : 7.52 MiB (4%)
    Language : French
    Language, more info : Clean effects

    Hidden Content:
    You must reply before you can see the hidden data contained here.
     
  2. Loading...


  3. rhea

    rhea Well-Known Member

    Joined:
    Jan 6, 2014
    Messages:
    5,193
    Likes Received:
    250
    thank you so much
     
  4. tsm897

    tsm897 Member

    Joined:
    Apr 16, 2014
    Messages:
    129
    Likes Received:
    3
    thank you
     
  5. akon111

    akon111 Member

    Joined:
    Dec 29, 2015
    Messages:
    167
    Likes Received:
    0
    thanks
     
  6. Josue Carminatti

    Josue Carminatti Member

    Joined:
    Jul 19, 2015
    Messages:
    251
    Likes Received:
    5
  7. killers23

    killers23 Active Member

    Joined:
    Feb 27, 2015
    Messages:
    401
    Likes Received:
    62
    thank you
     
  8. panchozua13

    panchozua13 Member

    Joined:
    Jun 25, 2016
    Messages:
    178
    Likes Received:
    4
    gracias por el video
     
  9. rimisark

    rimisark Member

    Joined:
    Jul 22, 2016
    Messages:
    133
    Likes Received:
    2
    10xxxxxxxxxxxxxxxxxxxxxxxxxxxxxxxxxxx
     
  10. arasu123

    arasu123 Member

    Joined:
    Aug 8, 2016
    Messages:
    273
    Likes Received:
    7
    sadasdasd
     
  11. tapions

    tapions Active Member

    Joined:
    Aug 30, 2016
    Messages:
    749
    Likes Received:
    47
    gracias
     
  12. Lucky

    Lucky Member

    Joined:
    Sep 26, 2016
    Messages:
    220
    Likes Received:
    11
    thanks
     
  13. revilo18

    revilo18 Well-Known Member

    Joined:
    May 26, 2016
    Messages:
    1,298
    Likes Received:
    51
    THANKKK