Bon Jovi - Livin' On A Prayer (MTVPulse-1080i-DD2.0)-Olgold

Discussion in 'MTV PULSE HD' started by Olgold, Aug 25, 2015.

  1. Olgold

    Olgold Well-Known Member Capper

    Joined:
    Aug 19, 2015
    Messages:
    436
    Likes Received:
    1,677
    [​IMG]
    General
    Format : MPEG-TS
    File size : 253 MiB
    Duration : 4mn 6s
    Overall bit rate mode : Variable
    Overall bit rate : 8 615 Kbps

    Video
    Format : AVC
    Format/Info : Advanced Video Codec
    Format profile : [email protected]
    Format settings, CABAC : Yes
    Format settings, ReFrames : 4 frames
    Duration : 4mn 6s
    Bit rate : 7 930 Kbps
    Width : 1 920 pixels
    Height : 1 080 pixels
    Display aspect ratio : 16:9
    Frame rate : 25.000 fps
    Standard : Component
    Color space : YUV
    Chroma subsampling : 4:2:0
    Bit depth : 8 bits
    Scan type : MBAFF
    Scan order : Top Field First
    Bits/(Pixel*Frame) : 0.153
    Stream size : 233 MiB (92%)
    Color range : Limited

    Audio
    Format : AC-3
    Format/Info : Audio Coding 3
    Mode extension : CM (complete main)
    Format settings, Endianness : Big
    Duration : 4mn 6s
    Bit rate mode : Constant
    Bit rate : 256 Kbps
    Channel(s) : 2 channels
    Channel positions : Front: L R
    Sampling rate : 48.0 KHz
    Compression mode : Lossy
    Delay relative to video : 112ms
    Stream size : 7.53 MiB (3%)
    Language : French
    Language, more info : Clean effects

    Hidden Content:
    You must reply before you can see the hidden data contained here.
     
  2. Loading...


  3. 777josem

    777josem ProRes 1080p LPCM V . I . P. Uploader

    Joined:
    Sep 1, 2014
    Messages:
    3,590
    Likes Received:
    2,756
    :DI love this song! Thank you so much!
     
  4. MaggieS

    MaggieS Well-Known Member

    Joined:
    Sep 19, 2014
    Messages:
    1,022
    Likes Received:
    48
    TNX U
     
  5. rhea

    rhea Well-Known Member

    Joined:
    Jan 6, 2014
    Messages:
    6,660
    Likes Received:
    690
    thank you so much :)
     
  6. mizdot

    mizdot Well-Known Member

    Joined:
    Nov 13, 2014
    Messages:
    1,761
    Likes Received:
    41
    tnx man
     
  7. Crusha

    Crusha Well-Known Member Capper V . I . P.

    Joined:
    Oct 15, 2014
    Messages:
    2,357
    Likes Received:
    2,523
    thank you
     
  8. tf135

    tf135 Well-Known Member

    Joined:
    Nov 14, 2014
    Messages:
    2,270
    Likes Received:
    127
    thank you
     
  9. wwepan

    wwepan Member

    Joined:
    Oct 21, 2015
    Messages:
    39
    Likes Received:
    0
    Thank You
     
  10. nolynexor88

    nolynexor88 Well-Known Member

    Joined:
    Sep 29, 2015
    Messages:
    1,141
    Likes Received:
    69
     
  11. janito33

    janito33 Member

    Joined:
    Dec 10, 2014
    Messages:
    158
    Likes Received:
    2
    GRACIAS POR EL VIDEO
     
  12. Flaxdevil

    Flaxdevil Member

    Joined:
    May 25, 2014
    Messages:
    285
    Likes Received:
    10
    Bon jovi!
     
  13. tsm897

    tsm897 Member

    Joined:
    Apr 16, 2014
    Messages:
    136
    Likes Received:
    4
    thank you
     
  14. Godwinson

    Godwinson Active Member

    Joined:
    Oct 23, 2014
    Messages:
    394
    Likes Received:
    59
    Thanks
     
  15. Snorom6

    Snorom6 Well-Known Member V . I . P. Uploader

    Joined:
    Dec 17, 2015
    Messages:
    4,248
    Likes Received:
    4,889
  16. akon111

    akon111 Member

    Joined:
    Dec 29, 2015
    Messages:
    211
    Likes Received:
    3
    thank you
     
  17. williamcaracas

    williamcaracas Member

    Joined:
    Nov 29, 2013
    Messages:
    164
    Likes Received:
    2
  18. killers23

    killers23 Active Member

    Joined:
    Feb 27, 2015
    Messages:
    622
    Likes Received:
    83
    thank you
     
  19. Jorge Barrionuevo

    Jorge Barrionuevo Well-Known Member

    Joined:
    Jun 9, 2015
    Messages:
    1,254
    Likes Received:
    473
    GRACIAS!
     
  20. rimisark

    rimisark Member

    Joined:
    Jul 22, 2016
    Messages:
    149
    Likes Received:
    2
    10xxxxxxxxxxxxxxxxxxxx
     
  21. tapions

    tapions Active Member

    Joined:
    Aug 30, 2016
    Messages:
    899
    Likes Received:
    70
    gracias