CC Bob Marley - Get Up Stand Up MTVHD 1080i HDTV DD2.0 H.264 CELOBRAZiL-HDMania [CC]

Discussion in 'MTV HD' started by CELOBRAZiL, Oct 11, 2018.

  1. CELOBRAZiL

    CELOBRAZiL Well-Known Member Capper V . I . P. Donor

    Joined:
    Oct 2, 2013
    Messages:
    5,672
    Likes Received:
    18,207
    Bob Marley - Get Up Stand Up MTVHD 1080i HDTV DD2.0 H.264 CELOBRAZiL-HDMania [CC]

    [​IMG]



    Format : MPEG-TS
    File size : 179 MiB
    Duration : 3 min 36 s
    Overall bit rate mode : Variable
    Overall bit rate : 6 932 kb/s
    Law rating : N/A

    Video
    ID : 2760 (0xAC8)
    Menu ID : 5040 (0x13B0)
    Format : AVC
    Format/Info : Advanced Video Codec
    Format profile : High@L4
    Format settings : CABAC / 3 Ref Frames
    Format settings, CABAC : Yes
    Format settings, RefFrames : 3 frames
    Codec ID : 27
    Duration : 3 min 36 s
    Bit rate : 6 396 kb/s
    Width : 1 920 pixels
    Height : 1 080 pixels
    Display aspect ratio : 16:9
    Frame rate : 29.970 (30000/1001) FPS
    Color space : YUV
    Chroma subsampling : 4:2:0
    Bit depth : 8 bits
    Scan type : MBAFF
    Scan type, store method : Interleaved fields
    Scan order : Top Field First
    Bits/(Pixel*Frame) : 0.103
    Stream size : 165 MiB (92%)

    Audio
    ID : 2724 (0xAA4)
    Menu ID : 5040 (0x13B0)
    Format : AC-3
    Format/Info : Audio Coding 3
    Codec ID : 129
    Duration : 3 min 36 s
    Bit rate mode : Constant
    Bit rate : 192 kb/s
    Channel(s) : 2 channels
    Channel positions : Front: L R
    Sampling rate : 48.0 kHz
    Frame rate : 31.250 FPS (1536 SPF)
    Bit depth : 16 bits
    Compression mode : Lossy
    Stream size : 4.95 MiB (3%)
    Language : English
    Service kind : Complete Main

    Text #1
    ID : 2760 (0xAC8)-CC1
    Menu ID : 5040 (0x13B0)
    Format : EIA-608
    Muxing mode : SCTE 128 / DTVCC Transport
    Muxing mode, more info : Muxed in Video #1
    Duration : 3 min 36 s
    Bit rate mode : Constant
    Stream size : 0.00 Byte (0%)
    CaptionServiceName : CC1

    Text #2
    ID : 2760 (0xAC8)-1
    Menu ID : 5040 (0x13B0)
    Format : EIA-708
    Muxing mode : SCTE 128 / DTVCC Transport
    Muxing mode, more info : Muxed in Video #1
    Duration : 3 min 36 s
    Bit rate mode : Constant
    Stream size : 0.00 Byte (0%)


    Link(s):
    Hidden Content:
    You must either reply or click 'Like' to see the hidden information contained here.
     
    rhea, rvden, tf135 and 1 other person like this.
  2. Loading...


  3. CELOBRAZiL

    CELOBRAZiL Well-Known Member Capper V . I . P. Donor

    Joined:
    Oct 2, 2013
    Messages:
    5,672
    Likes Received:
    18,207
  4. rvden

    rvden Well-Known Member

    Joined:
    Apr 9, 2017
    Messages:
    578
    Likes Received:
    425
    Thank you!
     
    CELOBRAZiL likes this.
  5. rhea

    rhea Well-Known Member

    Joined:
    Jan 6, 2014
    Messages:
    8,185
    Likes Received:
    1,155
    thank you so much
     
    CELOBRAZiL likes this.