Blur - Song 2 (MTVPulse-1080i-DD2.0)-Olgold

Discussion in 'MTV PULSE HD' started by Olgold, Aug 19, 2015.

  1. Olgold

    Olgold Well-Known Member Capper

    Joined:
    Aug 19, 2015
    Messages:
    436
    Likes Received:
    1,824
    [​IMG]
    General
    Format : MPEG-TS
    File size : 120 MiB
    Duration : 2mn 0s
    Overall bit rate mode : Variable
    Overall bit rate : 8 346 Kbps

    Video
    Format : AVC
    Format/Info : Advanced Video Codec
    Format profile : High@L4
    Format settings, CABAC : Yes
    Format settings, ReFrames : 4 frames
    Duration : 2mn 0s
    Bit rate : 7 675 Kbps
    Width : 1 920 pixels
    Height : 1 080 pixels
    Display aspect ratio : 16:9
    Frame rate : 25.000 fps
    Standard : Component
    Color space : YUV
    Chroma subsampling : 4:2:0
    Bit depth : 8 bits
    Scan type : MBAFF
    Scan order : Top Field First
    Bits/(Pixel*Frame) : 0.148
    Stream size : 110 MiB (92%)
    Color range : Limited

    Audio
    Format : AC-3
    Format/Info : Audio Coding 3
    Mode extension : CM (complete main)
    Format settings, Endianness : Big
    Duration : 2mn 0s
    Bit rate mode : Constant
    Bit rate : 256 Kbps
    Channel(s) : 2 channels
    Channel positions : Front: L R
    Sampling rate : 48.0 KHz
    Compression mode : Lossy
    Delay relative to video : 152ms
    Stream size : 3.68 MiB (3%)
    Language : French
    Language, more info : Clean effects

    Hidden Content:
    You must reply before you can see the hidden data contained here.
     
    snake1, rvden, rhea and 2 others like this.
  2. Crusha

    Crusha Well-Known Member Capper V . I . P.

    Joined:
    Oct 15, 2014
    Messages:
    2,359
    Likes Received:
    2,980
    thank you
     
  3. 777josem

    777josem ProRes 1080p LPCM

    Joined:
    Sep 1, 2014
    Messages:
    3,792
    Likes Received:
    3,648
    I love this song! I love this video, I love the classics! :DThank you so much!
     
  4. MaggieS

    MaggieS Well-Known Member

    Joined:
    Sep 19, 2014
    Messages:
    1,154
    Likes Received:
    61
    tnx
     
  5. Zatimi

    Zatimi Well-Known Member

    Joined:
    Aug 27, 2014
    Messages:
    933
    Likes Received:
    264
    thanks so much..enjoyed this in the 90s, still do now :)
     
  6. rhea

    rhea Well-Known Member

    Joined:
    Jan 6, 2014
    Messages:
    8,301
    Likes Received:
    1,190
    thank you so much
     
  7. Flaxdevil

    Flaxdevil Member

    Joined:
    May 25, 2014
    Messages:
    285
    Likes Received:
    12
    rock and roll!
     
  8. Snorom6

    Snorom6 Well-Known Member V . I . P. Uploader

    Joined:
    Dec 17, 2015
    Messages:
    4,246
    Likes Received:
    6,227
  9. RUS22877773

    RUS22877773 Member

    Joined:
    Jan 7, 2016
    Messages:
    101
    Likes Received:
    1
    thank you
     
  10. Zeeh

    Zeeh Rallyforrivers.org

    Joined:
    Mar 20, 2015
    Messages:
    754
    Likes Received:
    31
    Thanks.
     
  11. slash

    slash Member

    Joined:
    Mar 17, 2016
    Messages:
    63
    Likes Received:
    2
    thanks
     
  12. TrendMusic

    TrendMusic Well-Known Member

    Joined:
    Oct 7, 2013
    Messages:
    1,752
    Likes Received:
    162
  13. cero

    cero Member

    Joined:
    Nov 1, 2013
    Messages:
    150
    Likes Received:
    3
    thank u!!!
     
  14. tapions

    tapions Well-Known Member

    Joined:
    Aug 30, 2016
    Messages:
    1,062
    Likes Received:
    95
    gracias
     
  15. DiVenturas

    DiVenturas Well-Known Member

    Joined:
    Oct 21, 2015
    Messages:
    2,812
    Likes Received:
    169
  16. DjStarfish

    DjStarfish New Member

    Joined:
    Apr 27, 2017
    Messages:
    6
    Likes Received:
    3
  17. rvden

    rvden Well-Known Member

    Joined:
    Apr 9, 2017
    Messages:
    587
    Likes Received:
    433
    Thank you!
     
  18. alvarojam

    alvarojam Member

    Joined:
    Mar 21, 2016
    Messages:
    155
    Likes Received:
    14
    thanks a lot!!!!!!!!!!!!!
     
  19. snake1

    snake1 Member

    Joined:
    Sep 30, 2017
    Messages:
    168
    Likes Received:
    0
    Can you release the download link?
     
  20. elabducido

    elabducido Member

    Joined:
    May 13, 2017
    Messages:
    45
    Likes Received:
    1
    thanks