Blondie - Heart Of Glass (MTVPulse-1080i-DD2.0)-Olgold

Discussion in 'MTV PULSE HD' started by Olgold, Aug 27, 2015.

  1. Olgold

    Olgold Well-Known Member Capper

    Joined:
    Aug 19, 2015
    Messages:
    436
    Likes Received:
    1,824
    [​IMG]
    General
    Format : MPEG-TS
    File size : 196 MiB
    Duration : 3mn 25s
    Overall bit rate mode : Variable
    Overall bit rate : 7 968 Kbps

    Video
    Format : AVC
    Format/Info : Advanced Video Codec
    Format profile : High@L4
    Format settings, CABAC : Yes
    Format settings, ReFrames : 4 frames
    Duration : 3mn 25s
    Bit rate : 7 316 Kbps
    Width : 1 920 pixels
    Height : 1 080 pixels
    Display aspect ratio : 16:9
    Frame rate : 25.000 fps
    Standard : Component
    Color space : YUV
    Chroma subsampling : 4:2:0
    Bit depth : 8 bits
    Scan type : MBAFF
    Scan order : Top Field First
    Bits/(Pixel*Frame) : 0.141
    Stream size : 179 MiB (92%)
    Color range : Limited

    Audio
    Format : AC-3
    Format/Info : Audio Coding 3
    Mode extension : CM (complete main)
    Format settings, Endianness : Big
    Duration : 3mn 26s
    Bit rate mode : Constant
    Bit rate : 256 Kbps
    Channel(s) : 2 channels
    Channel positions : Front: L R
    Sampling rate : 48.0 KHz
    Compression mode : Lossy
    Delay relative to video : 32ms
    Stream size : 6.29 MiB (3%)
    Language : French

    Hidden Content:
    You must reply before you can see the hidden data contained here.
     
    telex23, rhea, 777josem and 1 other person like this.
  2. 777josem

    777josem ProRes 1080p LPCM

    Joined:
    Sep 1, 2014
    Messages:
    3,792
    Likes Received:
    3,648
    Thank you so much!:happy:I love this song!
     
  3. rhea

    rhea Well-Known Member

    Joined:
    Jan 6, 2014
    Messages:
    8,301
    Likes Received:
    1,190
    thank you so much :)
     
  4. nazopo

    nazopo Active Member

    Joined:
    Apr 29, 2015
    Messages:
    76
    Likes Received:
    219
    Thanks for this classic video
     
    Yuri likes this.
  5. Flaxdevil

    Flaxdevil Member

    Joined:
    May 25, 2014
    Messages:
    285
    Likes Received:
    12
    gracias
     
  6. slash

    slash Member

    Joined:
    Mar 17, 2016
    Messages:
    63
    Likes Received:
    2
    thanks
     
  7. killers23

    killers23 Active Member

    Joined:
    Feb 27, 2015
    Messages:
    932
    Likes Received:
    98
    thanks for sharing
     
  8. vaci

    vaci Member

    Joined:
    Jul 16, 2016
    Messages:
    95
    Likes Received:
    5
    Thank
     
  9. tapions

    tapions Well-Known Member

    Joined:
    Aug 30, 2016
    Messages:
    1,062
    Likes Received:
    95
    gracias
     
  10. braciata

    braciata Well-Known Member

    Joined:
    Oct 16, 2014
    Messages:
    376
    Likes Received:
    623
    thxxxxxxxxxx
     
  11. Pedro16

    Pedro16 Member

    Joined:
    Jan 16, 2017
    Messages:
    218
    Likes Received:
    7
    Thanks!!!
     
  12. BillyTaylor

    BillyTaylor Member

    Joined:
    Nov 27, 2016
    Messages:
    193
    Likes Received:
    9
  13. alvarojam

    alvarojam Member

    Joined:
    Mar 21, 2016
    Messages:
    155
    Likes Received:
    14
    thanks you
     
  14. CristianMatias

    CristianMatias Next Generations

    Joined:
    Sep 17, 2016
    Messages:
    1,333
    Likes Received:
    109
    Heart Of Glass
     
  15. schicchi

    schicchi Member

    Joined:
    Oct 11, 2018
    Messages:
    324
    Likes Received:
    11
    Thank
    You
     
  16. pancho123456

    pancho123456 Member

    Joined:
    Monday
    Messages:
    180
    Likes Received:
    10