Blink-182 - Stay Together For The Kids (Vh1BRHD.1080i.DD2.0-ValterSc)

Discussion in 'VH1 HD' started by valtersc, Jun 16, 2017.

  1. valtersc

    valtersc Well-Known Member

    Joined:
    Nov 19, 2014
    Messages:
    342
    Likes Received:
    287
    [​IMG]

    Code:
    General
    ID                          : 1 (0x1)
    Complete name               : Blink-182 - Stay Together For The Kids (Vh1BRHD.1080i.DD2.0-ValterSc).ts
    Format                      : MPEG-TS
    File size                   : 110 MiB
    Duration                    : 3 min
    Overall bit rate mode       : Variable
    Overall bit rate            : 4 022 kb/s
    
    Video
    ID                          : 5333 (0x14D5)
    Menu ID                     : 1 (0x1)
    Format                      : AVC
    Format/Info                 : Advanced Video Codec
    Format profile              : High@L4
    Format settings, CABAC      : Yes
    Format settings, ReFrames   : 4 frames
    Codec ID                    : 27
    Duration                    : 3 min
    Bit rate                    : 3 630 kb/s
    Width                       : 1 920 pixels
    Height                      : 1 080 pixels
    Display aspect ratio        : 16:9
    Frame rate                  : 29.970 (30000/1001) FPS
    Color space                 : YUV
    Chroma subsampling          : 4:2:0
    Bit depth                   : 8 bits
    Scan type                   : Interlaced
    Scan type, store method     : Separated fields
    Scan order                  : Top Field First
    Bits/(Pixel*Frame)          : 0.058
    Stream size                 : 99.2 MiB (90%)
    Color range                 : Limited
    Color primaries             : BT.709
    Transfer characteristics    : BT.709
    Matrix coefficients         : BT.709
    
    Audio
    ID                          : 5331 (0x14D3)
    Menu ID                     : 1 (0x1)
    Format                      : AC-3
    Format/Info                 : Audio Coding 3
    Mode extension              : CM (complete main)
    Format settings, Endianness : Big
    Codec ID                    : 6
    Duration                    : 3 min
    Bit rate mode               : Constant
    Bit rate                    : 192 kb/s
    Channel(s)                  : 2 channels
    Channel positions           : Front: L R
    Sampling rate               : 48.0 kHz
    Frame rate                  : 31.250 FPS (1536 spf)
    Compression mode            : Lossy
    Stream size                 : 5.25 MiB (5%)
    Language                    : Portuguese

    Hidden Content:
    You must reply before you can see the hidden data contained here.
     
    Last edited: Jun 16, 2017
    rhea likes this.
  2. Loading...


  3. alemancha

    alemancha Member

    Joined:
    Apr 5, 2017
    Messages:
    444
    Likes Received:
    23
  4. brian182

    brian182 Well-Known Member

    Joined:
    Oct 14, 2013
    Messages:
    2,149
    Likes Received:
    123
    thanks!!lol
     
  5. rhea

    rhea Well-Known Member

    Joined:
    Jan 6, 2014
    Messages:
    8,373
    Likes Received:
    1,196
    thanks
     
  6. alvarojam

    alvarojam Member

    Joined:
    Mar 21, 2016
    Messages:
    155
    Likes Received:
    15
    thank you very much for sharing this
     
  7. skay13oct

    skay13oct Member

    Joined:
    Aug 17, 2017
    Messages:
    108
    Likes Received:
    2
  8. maicoon

    maicoon Member

    Joined:
    Sep 25, 2017
    Messages:
    30
    Likes Received:
    1
  9. maicoon

    maicoon Member

    Joined:
    Sep 25, 2017
    Messages:
    30
    Likes Received:
    1
    showw
     
  10. maicoon

    maicoon Member

    Joined:
    Sep 25, 2017
    Messages:
    30
    Likes Received:
    1
    showww
     
  11. dealan

    dealan New Member

    Joined:
    Sep 17, 2016
    Messages:
    12
    Likes Received:
    1
    thanks
     
  12. maggotsaid

    maggotsaid Active Member

    Joined:
    Oct 18, 2016
    Messages:
    328
    Likes Received:
    156
    THANKSS
     
  13. KhAoS182

    KhAoS182 Member

    Joined:
    Jun 15, 2018
    Messages:
    35
    Likes Received:
    0
  14. pedrinho1822

    pedrinho1822 New Member

    Joined:
    Jul 7, 2016
    Messages:
    15
    Likes Received:
    5
    thx bro :)
     
  15. Robert182

    Robert182 New Member

    Joined:
    Jul 12, 2018
    Messages:
    24
    Likes Received:
    0
  16. xmvax

    xmvax New Member

    Joined:
    Jul 14, 2018
    Messages:
    27
    Likes Received:
    8
    thanks
     
  17. Rey619Spear

    Rey619Spear [Title Pending]

    Joined:
    Aug 18, 2017
    Messages:
    123
    Likes Received:
    54
  18. Dmitry182

    Dmitry182 New Member

    Joined:
    Nov 27, 2018
    Messages:
    7
    Likes Received:
    0
    Thanks