BLACKPINK - DDU-DU DDU-DU (Bugs! 1080p)

Discussion in 'Music Videos' started by DETOX, Jul 6, 2018.

  1. DETOX

    DETOX Cupid boy when we touch I'm in heaven in your arms V . I . P. Uploader

    Joined:
    Feb 20, 2014
    Messages:
    4,972
    Likes Received:
    43,459
    [​IMG]
    Code:
    General
    Complete name               : BLACKPINK - DDU-DU DDU-DU (Bugs! 1080p).mp4
    Format                      : MPEG-4
    Format profile              : Base Media / Version 2
    Codec ID                    : mp42 (mp42/mp41)
    File size                   : 388 MiB
    Duration                    : 3 min 35 s
    Overall bit rate mode       : Variable
    Overall bit rate            : 15.1 Mb/s
    Encoded date                : UTC 2018-06-15 07:39:34
    Tagged date                 : UTC 2018-06-15 07:39:37
    ©TIM                        : 00:00:00:00
    ©TSC                        : 24000
    ©TSZ                        : 1001
    
    Video
    ID                          : 1
    Format                      : AVC
    Format/Info                 : Advanced Video Codec
    Format profile              : Main@L4.1
    Format settings             : CABAC / 4 Ref Frames
    Format settings, CABAC      : Yes
    Format settings, ReFrames   : 4 frames
    Codec ID                    : avc1
    Codec ID/Info               : Advanced Video Coding
    Duration                    : 3 min 35 s
    Bit rate                    : 14.8 Mb/s
    Width                       : 1 920 pixels
    Height                      : 1 080 pixels
    Display aspect ratio        : 16:9
    Frame rate mode             : Constant
    Frame rate                  : 23.976 (24000/1001) FPS
    Standard                    : NTSC
    Color space                 : YUV
    Chroma subsampling          : 4:2:0
    Bit depth                   : 8 bits
    Scan type                   : Progressive
    Bits/(Pixel*Frame)          : 0.298
    Stream size                 : 380 MiB (98%)
    Language                    : English
    Encoded date                : UTC 2018-06-15 07:39:34
    Tagged date                 : UTC 2018-06-15 07:39:34
    Color range                 : Limited
    Color primaries             : BT.709
    Transfer characteristics    : BT.709
    Matrix coefficients         : BT.709
    
    Audio
    ID                          : 2
    Format                      : AAC
    Format/Info                 : Advanced Audio Codec
    Format profile              : LC
    Codec ID                    : mp4a-40-2
    Duration                    : 3 min 35 s
    Source duration             : 3 min 35 s
    Bit rate mode               : Variable
    Bit rate                    : 317 kb/s
    Maximum bit rate            : 463 kb/s
    Channel(s)                  : 2 channels
    Channel positions           : Front: L R
    Sampling rate               : 48.0 kHz
    Frame rate                  : 46.875 FPS (1024 SPF)
    Compression mode            : Lossy
    Stream size                 : 8.14 MiB (2%)
    Source stream size          : 8.15 MiB (2%)
    Language                    : English
    Encoded date                : UTC 2018-06-15 07:39:34
    Tagged date                 : UTC 2018-06-15 07:39:34
    Server: mediafire

    Hidden Content:
    You must either reply or click 'Like' to see the hidden information contained here.

     
  2. Loading...


  3. nathanjuniorrf28

    nathanjuniorrf28 ToxicNTN

    Joined:
    Jul 24, 2016
    Messages:
    279
    Likes Received:
    79
    OMG, thanks
     
  4. fisherTW

    fisherTW Well-Known Member

    Joined:
    Dec 3, 2014
    Messages:
    1,777
    Likes Received:
    186
    Thank you.:)
     
  5. alberto piper naro

    alberto piper naro BETOHACKER

    Joined:
    Jul 4, 2015
    Messages:
    654
    Likes Received:
    223
  6. rhea

    rhea Well-Known Member

    Joined:
    Jan 6, 2014
    Messages:
    7,927
    Likes Received:
    1,024
    thank you
     
  7. hanshermann

    hanshermann Well-Known Member Uploader

    Joined:
    Aug 24, 2016
    Messages:
    6,621
    Likes Received:
    10,442
    wahts taht
     
  8. asidazim

    asidazim Member

    Joined:
    Feb 15, 2018
    Messages:
    37
    Likes Received:
    0
    thanks
     
  9. plwww

    plwww Active Member

    Joined:
    May 28, 2016
    Messages:
    631
    Likes Received:
    47
    thanks
     
  10. Joseph17

    Joseph17 Member

    Joined:
    Aug 1, 2014
    Messages:
    221
    Likes Received:
    6
    thanks <3
     
  11. poorsandwich

    poorsandwich Member

    Joined:
    Jul 9, 2018
    Messages:
    55
    Likes Received:
    1
  12. lucash

    lucash Member

    Joined:
    Nov 25, 2013
    Messages:
    306
    Likes Received:
    17
    thanks
     
  13. lethalshrapnel

    lethalshrapnel Member

    Joined:
    Jun 27, 2017
    Messages:
    170
    Likes Received:
    2
  14. thaovox

    thaovox Member

    Joined:
    Mar 29, 2018
    Messages:
    89
    Likes Received:
    3
    thank Detox so much
     
  15. 010juninho

    010juninho Well-Known Member

    Joined:
    Jan 16, 2016
    Messages:
    1,085
    Likes Received:
    46
  16. sylvieyunjae

    sylvieyunjae Active Member

    Joined:
    Feb 29, 2016
    Messages:
    865
    Likes Received:
    42
  17. Amauri Luiz

    Amauri Luiz Well-Known Member

    Joined:
    Jan 14, 2014
    Messages:
    1,858
    Likes Received:
    72
    Thank you!
     
  18. santi2009

    santi2009 Member

    Joined:
    Apr 9, 2016
    Messages:
    242
    Likes Received:
    19
  19. funnoo

    funnoo Active Member

    Joined:
    Jun 3, 2016
    Messages:
    124
    Likes Received:
    68
    thanks
     
  20. sergiowmg

    sergiowmg Member

    Joined:
    May 5, 2016
    Messages:
    134
    Likes Received:
    3