DVD Blackbox - Everybody, Everybody (Promo Only) [VOB]

Discussion in 'SD' started by claudio1301, Aug 4, 2020.

  1. claudio1301

    claudio1301 Well-Known Member

    Joined:
    Oct 2, 2018
    Messages:
    1,386
    Likes Received:
    2,925
    [​IMG]
    Code:
    General
    Complete name                  : Blackbox - Everybody, Everybody (Promo Only).VOB
    Format                         : MPEG-PS
    File size                      : 228 MiB
    Duration                       : 4 min 6 s
    Overall bit rate mode          : Variable
    Overall bit rate               : 7 759 kb/s
    
    Video
    ID                             : 224 (0xE0)
    Format                         : MPEG Video
    Format version                 : Version 2
    Format profile                 : Main@Main
    Format settings                : CustomMatrix / BVOP
    Format settings, BVOP          : Yes
    Format settings, Matrix        : Custom
    Format settings, GOP           : Variable
    Format settings, picture struc : Frame
    Duration                       : 4 min 6 s
    Bit rate mode                  : Variable
    Bit rate                       : 6 068 kb/s
    Maximum bit rate               : 8 000 kb/s
    Width                          : 720 pixels
    Height                         : 480 pixels
    Display aspect ratio           : 4:3
    Frame rate                     : 29.970 (30000/1001) FPS
    Standard                       : NTSC
    Color space                    : YUV
    Chroma subsampling             : 4:2:0
    Bit depth                      : 8 bits
    Scan type                      : Interlaced
    Scan order                     : Top Field First
    Compression mode               : Lossy
    Bits/(Pixel*Frame)             : 0.586
    Time code of first frame       : 00:00:00:00
    Time code source               : Group of pictures header
    GOP, Open/Closed               : Closed
    Stream size                    : 178 MiB (78%)
    Color primaries                : BT.601 NTSC
    Transfer characteristics       : BT.601
    Matrix coefficients            : BT.601
    
    Audio
    ID                             : 189 (0xBD)-160 (0xA0)
    Format                         : PCM
    Format settings                : Big / Signed
    Muxing mode                    : DVD-Video
    Duration                       : 4 min 6 s
    Bit rate mode                  : Constant
    Bit rate                       : 1 536 kb/s
    Channel(s)                     : 2 channels
    Sampling rate                  : 48.0 kHz
    Bit depth                      : 16 bits
    Delay relative to video        : -285 ms
    Stream size                    : 45.1 MiB (20%)
    
    Menu
    Host: Mediafire
    Hidden Content:
    You must reply before you can see the hidden data contained here.
     
  2. Loading...


  3. sulik

    sulik Member

    Joined:
    Oct 5, 2019
    Messages:
    263
    Likes Received:
    0
    Member
     
  4. Toxicity-56

    Toxicity-56 Member

    Joined:
    Nov 15, 2019
    Messages:
    376
    Likes Received:
    14
    Sharemania
     
  5. MACV

    MACV Member

    Joined:
    Aug 12, 2020
    Messages:
    127
    Likes Received:
    2
    Gracias