Black Eyed Peas - My Humps (VIVAHD-1080i-DD2.0-Djodjara)-HDMania

Discussion in 'VIVA HD' started by Djodjara, Oct 11, 2014.

  1. Djodjara

    Djodjara Gwen Fan Capper

    Joined:
    Sep 6, 2014
    Messages:
    733
    Likes Received:
    1,204
    Black Eyed Peas - My Humps (VIVA HD 1080i - Djodjara)

    [​IMG]
    [​IMG]

    General:
    ID : 95 (0x5F)
    Format : MPEG-TS
    File size : 249 MiB
    Duration : 3mn 53s
    Overall bit rate mode : Variable
    Overall bit rate : 8 942 Kbps

    Video:
    ID : 528 (0x210)
    Menu ID : 9067 (0x236B)
    Format : AVC
    Format/Info : Advanced Video Codec
    Format profile : [email protected]
    Format settings, CABAC : Yes
    Format settings, ReFrames : 3 frames
    Codec ID : 27
    Duration : 3mn 52s
    Bit rate : 8 048 Kbps
    Width : 1 920 pixels
    Height : 1 080 pixels
    Display aspect ratio : 16:9
    Frame rate : 25.000 fps
    Standard : Component
    Color space : YUV
    Chroma subsampling : 4:2:0
    Bit depth : 8 bits
    Scan type : Interlaced
    Bits/(Pixel*Frame) : 0.155
    Stream size : 223 MiB (90%)
    Color primaries : BT.709
    Transfer characteristics : BT.709
    Matrix coefficients : BT.709

    Audio #1:
    ID : 529 (0x211)
    Menu ID : 9067 (0x236B)
    Format : MPEG Audio
    Format version : Version 1
    Format profile : Layer 2
    Codec ID : 4
    Duration : 3mn 52s
    Bit rate mode : Constant
    Bit rate : 256 Kbps
    Channel count : 2 channels
    Sampling rate : 48.0 KHz
    Compression mode : Lossy
    Delay relative to video : 66ms
    Stream size : 7.11 MiB (3%)
    Language : German

    Audio #2:
    ID : 539 (0x21B)
    Menu ID : 9067 (0x236B)
    Format : AC-3
    Format/Info : Audio Coding 3
    Mode extension : HI (hearing impaired)
    Format settings, Endianness : Big
    Codec ID : 6
    Duration : 3mn 52s
    Bit rate mode : Constant
    Bit rate : 192 Kbps
    Channel count : 2 channels
    Channel positions : Front: L R
    Sampling rate : 48.0 KHz
    Bit depth : 16 bits
    Compression mode : Lossy
    Delay relative to video : 148ms
    Stream size : 5.33 MiB (2%)
    Language : German

    Hidden Content:
    You must reply before you can see the hidden data contained here.
     
    Dreamer, coquis72, barnabas11 and 7 others like this.
  2. 江雨燃双鱼

    江雨燃双鱼 Active Member

    Joined:
    Apr 5, 2014
    Messages:
    597
    Likes Received:
    37
  3. 江雨燃双鱼

    江雨燃双鱼 Active Member

    Joined:
    Apr 5, 2014
    Messages:
    597
    Likes Received:
    37
  4. iqson

    iqson Active Member

    Joined:
    Dec 30, 2013
    Messages:
    196
    Likes Received:
    68
    Thank you so much
     
  5. Escalade1080p

    Escalade1080p Member

    Joined:
    Nov 20, 2013
    Messages:
    495
    Likes Received:
    14
  6. Mwhaha

    Mwhaha Member

    Joined:
    Nov 17, 2013
    Messages:
    69
    Likes Received:
    1
  7. tsm897

    tsm897 Member

    Joined:
    Apr 16, 2014
    Messages:
    136
    Likes Received:
    4
  8. lpplus

    lpplus LP & MET Fan

    Joined:
    Sep 28, 2014
    Messages:
    750
    Likes Received:
    2,310
    ممنون
     
  9. rhea

    rhea Well-Known Member

    Joined:
    Jan 6, 2014
    Messages:
    5,870
    Likes Received:
    435
    thank you so much :)
     
  10. Zanx94

    Zanx94 Member

    Joined:
    Nov 21, 2013
    Messages:
    123
    Likes Received:
    7
    ThANK YoU
     
  11. DETOX

    DETOX Well-Known Member V . I . P. Uploader

    Joined:
    Feb 20, 2014
    Messages:
    2,887
    Likes Received:
    18,530
    Thank you! :happy:
     
  12. alex

    alex Well-Known Member

    Joined:
    Nov 21, 2013
    Messages:
    4,532
    Likes Received:
    354
  13. swarup dutta

    swarup dutta Member

    Joined:
    Dec 29, 2013
    Messages:
    77
    Likes Received:
    1
  14. mike gunen

    mike gunen Member

    Joined:
    Nov 9, 2013
    Messages:
    759
    Likes Received:
    18
  15. kyo23

    kyo23 Member

    Joined:
    Jan 31, 2014
    Messages:
    273
    Likes Received:
    5
    THANK YOUU
     
  16. Crusha

    Crusha Well-Known Member Capper

    Joined:
    Oct 15, 2014
    Messages:
    2,350
    Likes Received:
    2,292
    thank you!!
     
  17. gstnedgrdrch93

    gstnedgrdrch93 Member

    Joined:
    Oct 12, 2014
    Messages:
    50
    Likes Received:
    1
     
  18. ericbook

    ericbook Member

    Joined:
    Jan 3, 2014
    Messages:
    202
    Likes Received:
    3
    graciaas :D
     
  19. withcap

    withcap Well-Known Member

    Joined:
    Oct 29, 2013
    Messages:
    1,527
    Likes Received:
    86
    Thank you!
     
  20. MaggieS

    MaggieS Active Member

    Joined:
    Sep 19, 2014
    Messages:
    971
    Likes Received:
    39
    i wanna:lol: