Black Eyed Peas - Meet Me Halfway (MTVNHD-1080i-DD2.0)

Discussion in 'MTVNHD' started by adam dark, Dec 19, 2013.

  1. adam dark

    adam dark Well-Known Member

    Joined:
    Dec 5, 2013
    Messages:
    2,370
    Likes Received:
    3,614
    Black Eyed Peas - Meet Me Halfway

    [​IMG]

    [​IMG]

    [​IMG]

    [​IMG]

    [​IMG]

    [​IMG]

    [​IMG]
    General
    ID : 8900 (0x22C4)
    Complete name : Black Eyed Peas - Meet Me Halfway.ts
    Format : MPEG-TS
    File size : 265 MiB
    Duration : 4mn 43s
    Overall bit rate mode : Variable
    Overall bit rate : 7 812 Kbps

    Video
    ID : 326 (0x146)
    Menu ID : 12106 (0x2F4A)
    Format : AVC
    Format/Info : Advanced Video Codec
    Format profile : [email protected]
    Format settings, CABAC : Yes
    Format settings, ReFrames : 4 frames
    Codec ID : 27
    Duration : 4mn 44s
    Bit rate : 7 038 Kbps
    Width : 1 920 pixels
    Height : 1 080 pixels
    Display aspect ratio : 16:9
    Frame rate : 25.000 fps
    Color space : YUV
    Chroma subsampling : 4:2:0
    Bit depth : 8 bits
    Scan type : Interlaced
    Bits/(Pixel*Frame) : 0.136
    Stream size : 238 MiB (90%)
    Color primaries : BT.709
    Transfer characteristics : BT.709
    Matrix coefficients : BT.709

    Audio
    ID : 406 (0x196)
    Menu ID : 12106 (0x2F4A)
    Format : AC-3
    Format/Info : Audio Coding 3
    Mode extension : CM (complete main)
    Format settings, Endianness : Big
    Codec ID : 6
    Duration : 4mn 44s
    Bit rate mode : Constant
    Bit rate : 384 Kbps
    Channel count : 2 channels
    Channel positions : Front: L R
    Sampling rate : 48.0 KHz
    Bit depth : 16 bits
    Compression mode : Lossy
    Delay relative to video : 20ms
    Stream size : 13.0 MiB (5%)
    Language : English
    Language, more info : Clean effects

    Hidden Content:
    You must reply before you can see the hidden data contained here.
    Credit to the original Capper
     
  2. Loading...


  3. lucash

    lucash Member

    Joined:
    Nov 25, 2013
    Messages:
    190
    Likes Received:
    11
    thanks
     
  4. ericbook

    ericbook Member

    Joined:
    Jan 3, 2014
    Messages:
    150
    Likes Received:
    1
    gracias por este aporte
     
  5. mike gunen

    mike gunen Member

    Joined:
    Nov 9, 2013
    Messages:
    659
    Likes Received:
    11
  6. Antony

    Antony Active Member

    Joined:
    Nov 11, 2013
    Messages:
    727
    Likes Received:
    164
    thanks
     
  7. benja

    benja Active Member

    Joined:
    Jan 8, 2014
    Messages:
    965
    Likes Received:
    53
    tran
    tranks!
     
  8. elejido10

    elejido10 Member

    Joined:
    Oct 27, 2013
    Messages:
    189
    Likes Received:
    0
    gracias
     
  9. Soroush

    Soroush Member

    Joined:
    Dec 5, 2013
    Messages:
    42
    Likes Received:
    0
  10. lifevirgin

    lifevirgin Active Member

    Joined:
    Feb 15, 2014
    Messages:
    362
    Likes Received:
    31
     
  11. larzpolanzki

    larzpolanzki Member

    Joined:
    Feb 10, 2014
    Messages:
    400
    Likes Received:
    11
    fantastic thank you
     
  12. guillaume

    guillaume Member

    Joined:
    Jan 4, 2014
    Messages:
    209
    Likes Received:
    20
    :)
     
  13. hh2012b

    hh2012b Member

    Joined:
    Feb 19, 2014
    Messages:
    21
    Likes Received:
    1
    Thanks
    BEP
     
  14. joelh20101

    joelh20101 Well-Known Member

    Joined:
    Nov 4, 2013
    Messages:
    1,455
    Likes Received:
    132
  15. alvin

    alvin Member

    Joined:
    May 11, 2014
    Messages:
    197
    Likes Received:
    11
     
  16. OERB

    OERB Member

    Joined:
    Jan 30, 2014
    Messages:
    179
    Likes Received:
    11
    aaaaaaaaaaaaaaaaaaaaaaaaaaaa
     
  17. adam dark

    adam dark Well-Known Member

    Joined:
    Dec 5, 2013
    Messages:
    2,370
    Likes Received:
    3,614
    you're welcome dude!
     
  18. Claudio Giovanny

    Claudio Giovanny Member

    Joined:
    Sep 12, 2014
    Messages:
    38
    Likes Received:
    3
  19. Katheryn

    Katheryn Well-Known Member

    Joined:
    Nov 29, 2013
    Messages:
    994
    Likes Received:
    2,139
    Thanks !
     
  20. Chris

    Chris Member

    Joined:
    Oct 19, 2013
    Messages:
    500
    Likes Received:
    15
    Thank you
     
  21. adam dark

    adam dark Well-Known Member

    Joined:
    Dec 5, 2013
    Messages:
    2,370
    Likes Received:
    3,614