FEED Billboard Music Awards 2013 Performances 720p HDTV 37 Mbps DTS-HD MA 5.1 H.264-TrollHD

Discussion in 'HD Live Performances' started by KaiKawaii, Jan 21, 2018.

  1. KaiKawaii

    KaiKawaii Well-Known Member Uploader

    Joined:
    Jun 1, 2017
    Messages:
    462
    Likes Received:
    613
    [​IMG][​IMG]
    Code:
    General
    ID                             : 1 (0x1)
    Complete name                  : D:\01 Bruno Mars - Treasure - Billboard Music Awards 2013 720p HDTV 37 Mbps DTS-HD MA 5.1 H.264-TrollHD.ts
    Format                         : MPEG-TS
    File size                      : 1.11 GiB
    Duration                       : 3 min 56 s
    Overall bit rate mode          : Variable
    Overall bit rate               : 40.1 Mb/s
    
    Video
    ID                             : 4113 (0x1011)
    Menu ID                        : 1 (0x1)
    Format                         : AVC
    Format/Info                    : Advanced Video Codec
    Format profile                 : High@L4.1
    Format settings, CABAC         : Yes
    Format settings, RefFrames     : 6 frames
    Codec ID                       : 27
    Duration                       : 3 min 56 s
    Bit rate mode                  : Variable
    Maximum bit rate               : 40.0 Mb/s
    Width                          : 1 280 pixels
    Height                         : 720 pixels
    Display aspect ratio           : 16:9
    Frame rate                     : 59.940 (60000/1001) FPS
    Color space                    : YUV
    Chroma subsampling             : 4:2:0
    Bit depth                      : 8 bits
    Scan type                      : Progressive
    Color range                    : Limited
    Color primaries                : BT.709
    Transfer characteristics       : BT.709
    Matrix coefficients            : BT.709
    
    Audio #1
    ID                             : 4352 (0x1100)
    Menu ID                        : 1 (0x1)
    Format                         : DTS
    Format/Info                    : Digital Theater Systems
    Format profile                 : MA / Core
    Mode                           : 16
    Format settings, Endianness    : Big
    Muxing mode                    : Stream extension
    Codec ID                       : 134
    Duration                       : 3 min 56 s
    Bit rate mode                  : Variable / Constant
    Bit rate                       : Unknown / 1 509 kb/s
    Channel(s)                     : 6 channels
    Channel positions              : Front: L C R, Side: L R, LFE
    Sampling rate                  : 48.0 kHz
    Frame rate                     : 93.750 FPS (512 SPF)
    Bit depth                      : 16 bits
    Compression mode               : Lossless / Lossy
    Delay relative to video        : 2 ms
    Language                       : English
    
    Audio #2
    ID                             : 4353 (0x1101)
    Menu ID                        : 1 (0x1)
    Format                         : MPEG Audio
    Format version                 : Version 1
    Format profile                 : Layer 2
    Mode                           : Dual mono
    Codec ID                       : 4
    Duration                       : 3 min 56 s
    Bit rate mode                  : Constant
    Bit rate                       : 384 kb/s
    Channel(s)                     : 2 channels
    Sampling rate                  : 48.0 kHz
    Compression mode               : Lossy
    Delay relative to video        : 2 ms
    Stream size                    : 10.8 MiB (1%)
    Language                       : det
    Language, more info            : Clean effects

    [​IMG][​IMG]
    Code:
    General
    ID                             : 1 (0x1)
    Complete name                  : D:\02 Selena Gomez - Come & Get It - Billboard Music Awards 2013 720p HDTV 37 Mbps DTS-HD MA 5.1 H.264-TrollHD.ts
    Format                         : MPEG-TS
    File size                      : 1.04 GiB
    Duration                       : 3 min 42 s
    Overall bit rate mode          : Variable
    Overall bit rate               : 40.1 Mb/s
    
    Video
    ID                             : 4113 (0x1011)
    Menu ID                        : 1 (0x1)
    Format                         : AVC
    Format/Info                    : Advanced Video Codec
    Format profile                 : High@L4.1
    Format settings, CABAC         : Yes
    Format settings, RefFrames     : 6 frames
    Codec ID                       : 27
    Duration                       : 3 min 42 s
    Bit rate mode                  : Variable
    Maximum bit rate               : 40.0 Mb/s
    Width                          : 1 280 pixels
    Height                         : 720 pixels
    Display aspect ratio           : 16:9
    Frame rate                     : 59.940 (60000/1001) FPS
    Color space                    : YUV
    Chroma subsampling             : 4:2:0
    Bit depth                      : 8 bits
    Scan type                      : Progressive
    Color range                    : Limited
    Color primaries                : BT.709
    Transfer characteristics       : BT.709
    Matrix coefficients            : BT.709
    
    Audio #1
    ID                             : 4352 (0x1100)
    Menu ID                        : 1 (0x1)
    Format                         : DTS
    Format/Info                    : Digital Theater Systems
    Format profile                 : MA / Core
    Mode                           : 16
    Format settings, Endianness    : Big
    Muxing mode                    : Stream extension
    Codec ID                       : 134
    Duration                       : 3 min 42 s
    Bit rate mode                  : Variable / Constant
    Bit rate                       : Unknown / 1 509 kb/s
    Channel(s)                     : 6 channels
    Channel positions              : Front: L C R, Side: L R, LFE
    Sampling rate                  : 48.0 kHz
    Frame rate                     : 93.750 FPS (512 SPF)
    Bit depth                      : 16 bits
    Compression mode               : Lossless / Lossy
    Delay relative to video        : 7 ms
    Language                       : English
    
    Audio #2
    ID                             : 4353 (0x1101)
    Menu ID                        : 1 (0x1)
    Format                         : MPEG Audio
    Format version                 : Version 1
    Format profile                 : Layer 2
    Mode                           : Dual mono
    Codec ID                       : 4
    Duration                       : 3 min 42 s
    Bit rate mode                  : Constant
    Bit rate                       : 384 kb/s
    Channel(s)                     : 2 channels
    Sampling rate                  : 48.0 kHz
    Compression mode               : Lossy
    Delay relative to video        : 23 ms
    Stream size                    : 10.2 MiB (1%)
    Language                       : det
    Language, more info            : Clean effects

    [​IMG][​IMG]
    Code:
    General
    ID                             : 1 (0x1)
    Complete name                  : D:\03 The Band Perry - Better Dig Two - Billboard Music Awards 2013 720p HDTV 37 Mbps DTS-HD MA 5.1 H.264-TrollHD.ts
    Format                         : MPEG-TS
    File size                      : 1.20 GiB
    Duration                       : 4 min 18 s
    Overall bit rate mode          : Variable
    Overall bit rate               : 39.9 Mb/s
    
    Video
    ID                             : 4113 (0x1011)
    Menu ID                        : 1 (0x1)
    Format                         : AVC
    Format/Info                    : Advanced Video Codec
    Format profile                 : High@L4.1
    Format settings, CABAC         : Yes
    Format settings, RefFrames     : 6 frames
    Codec ID                       : 27
    Duration                       : 4 min 18 s
    Bit rate mode                  : Variable
    Maximum bit rate               : 40.0 Mb/s
    Width                          : 1 280 pixels
    Height                         : 720 pixels
    Display aspect ratio           : 16:9
    Frame rate                     : 59.940 (60000/1001) FPS
    Color space                    : YUV
    Chroma subsampling             : 4:2:0
    Bit depth                      : 8 bits
    Scan type                      : Progressive
    Color range                    : Limited
    Color primaries                : BT.709
    Transfer characteristics       : BT.709
    Matrix coefficients            : BT.709
    
    Audio #1
    ID                             : 4352 (0x1100)
    Menu ID                        : 1 (0x1)
    Format                         : DTS
    Format/Info                    : Digital Theater Systems
    Format profile                 : MA / Core
    Mode                           : 16
    Format settings, Endianness    : Big
    Muxing mode                    : Stream extension
    Codec ID                       : 134
    Duration                       : 4 min 18 s
    Bit rate mode                  : Variable / Constant
    Bit rate                       : Unknown / 1 509 kb/s
    Channel(s)                     : 6 channels
    Channel positions              : Front: L C R, Side: L R, LFE
    Sampling rate                  : 48.0 kHz
    Frame rate                     : 93.750 FPS (512 SPF)
    Bit depth                      : 16 bits
    Compression mode               : Lossless / Lossy
    Delay relative to video        : 6 ms
    Language                       : English
    
    Audio #2
    ID                             : 4353 (0x1101)
    Menu ID                        : 1 (0x1)
    Format                         : MPEG Audio
    Format version                 : Version 1
    Format profile                 : Layer 2
    Mode                           : Dual mono
    Codec ID                       : 4
    Duration                       : 4 min 18 s
    Bit rate mode                  : Constant
    Bit rate                       : 384 kb/s
    Channel(s)                     : 2 channels
    Sampling rate                  : 48.0 kHz
    Compression mode               : Lossy
    Delay relative to video        : 11 ms
    Stream size                    : 11.8 MiB (1%)
    Language                       : det
    Language, more info            : Clean effects

    [​IMG][​IMG]
    Code:
    General
    ID                             : 1 (0x1)
    Complete name                  : D:\04 Icona Pop - I Love It - Billboard Music Awards 2013 720p HDTV 37 Mbps DTS-HD MA 5.1 H.264-TrollHD.ts
    Format                         : MPEG-TS
    File size                      : 917 MiB
    Duration                       : 3 min 10 s
    Overall bit rate mode          : Variable
    Overall bit rate               : 40.2 Mb/s
    
    Video
    ID                             : 4113 (0x1011)
    Menu ID                        : 1 (0x1)
    Format                         : AVC
    Format/Info                    : Advanced Video Codec
    Format profile                 : High@L4.1
    Format settings, CABAC         : Yes
    Format settings, RefFrames     : 6 frames
    Codec ID                       : 27
    Duration                       : 3 min 10 s
    Bit rate mode                  : Variable
    Maximum bit rate               : 40.0 Mb/s
    Width                          : 1 280 pixels
    Height                         : 720 pixels
    Display aspect ratio           : 16:9
    Frame rate                     : 59.940 (60000/1001) FPS
    Color space                    : YUV
    Chroma subsampling             : 4:2:0
    Bit depth                      : 8 bits
    Scan type                      : Progressive
    Color range                    : Limited
    Color primaries                : BT.709
    Transfer characteristics       : BT.709
    Matrix coefficients            : BT.709
    
    Audio #1
    ID                             : 4352 (0x1100)
    Menu ID                        : 1 (0x1)
    Format                         : DTS
    Format/Info                    : Digital Theater Systems
    Format profile                 : MA / Core
    Mode                           : 16
    Format settings, Endianness    : Big
    Muxing mode                    : Stream extension
    Codec ID                       : 134
    Duration                       : 3 min 10 s
    Bit rate mode                  : Variable / Constant
    Bit rate                       : Unknown / 1 509 kb/s
    Channel(s)                     : 6 channels
    Channel positions              : Front: L C R, Side: L R, LFE
    Sampling rate                  : 48.0 kHz
    Frame rate                     : 93.750 FPS (512 SPF)
    Bit depth                      : 16 bits
    Compression mode               : Lossless / Lossy
    Delay relative to video        : 5 ms
    Language                       : English
    
    Audio #2
    ID                             : 4353 (0x1101)
    Menu ID                        : 1 (0x1)
    Format                         : MPEG Audio
    Format version                 : Version 1
    Format profile                 : Layer 2
    Mode                           : Dual mono
    Codec ID                       : 4
    Duration                       : 3 min 10 s
    Bit rate mode                  : Constant
    Bit rate                       : 384 kb/s
    Channel(s)                     : 2 channels
    Sampling rate                  : 48.0 kHz
    Compression mode               : Lossy
    Delay relative to video        : 8 ms
    Stream size                    : 8.74 MiB (1%)
    Language                       : det
    Language, more info            : Clean effects

    [​IMG][​IMG]
    Code:
    General
    ID                             : 1 (0x1)
    Complete name                  : D:\05 Chris Brown - Fine China - Billboard Music Awards 2013 720p HDTV 37 Mbps DTS-HD MA 5.1 H.264-TrollHD.ts
    Format                         : MPEG-TS
    File size                      : 1.20 GiB
    Duration                       : 4 min 17 s
    Overall bit rate mode          : Variable
    Overall bit rate               : 40.1 Mb/s
    
    Video
    ID                             : 4113 (0x1011)
    Menu ID                        : 1 (0x1)
    Format                         : AVC
    Format/Info                    : Advanced Video Codec
    Format profile                 : High@L4.1
    Format settings, CABAC         : Yes
    Format settings, RefFrames     : 6 frames
    Codec ID                       : 27
    Duration                       : 4 min 17 s
    Bit rate mode                  : Variable
    Maximum bit rate               : 40.0 Mb/s
    Width                          : 1 280 pixels
    Height                         : 720 pixels
    Display aspect ratio           : 16:9
    Frame rate                     : 59.940 (60000/1001) FPS
    Color space                    : YUV
    Chroma subsampling             : 4:2:0
    Bit depth                      : 8 bits
    Scan type                      : Progressive
    Color range                    : Limited
    Color primaries                : BT.709
    Transfer characteristics       : BT.709
    Matrix coefficients            : BT.709
    
    Audio #1
    ID                             : 4352 (0x1100)
    Menu ID                        : 1 (0x1)
    Format                         : DTS
    Format/Info                    : Digital Theater Systems
    Format profile                 : MA / Core
    Mode                           : 16
    Format settings, Endianness    : Big
    Muxing mode                    : Stream extension
    Codec ID                       : 134
    Duration                       : 4 min 17 s
    Bit rate mode                  : Variable / Constant
    Bit rate                       : Unknown / 1 509 kb/s
    Channel(s)                     : 6 channels
    Channel positions              : Front: L C R, Side: L R, LFE
    Sampling rate                  : 48.0 kHz
    Frame rate                     : 93.750 FPS (512 SPF)
    Bit depth                      : 16 bits
    Compression mode               : Lossless / Lossy
    Delay relative to video        : 3 ms
    Language                       : English
    
    Audio #2
    ID                             : 4353 (0x1101)
    Menu ID                        : 1 (0x1)
    Format                         : MPEG Audio
    Format version                 : Version 1
    Format profile                 : Layer 2
    Mode                           : Dual mono
    Codec ID                       : 4
    Duration                       : 4 min 17 s
    Bit rate mode                  : Constant
    Bit rate                       : 384 kb/s
    Channel(s)                     : 2 channels
    Sampling rate                  : 48.0 kHz
    Compression mode               : Lossy
    Delay relative to video        : 11 ms
    Stream size                    : 11.8 MiB (1%)
    Language                       : det
    Language, more info            : Clean effects

    [​IMG][​IMG]
    Code:
    General
    ID                             : 1 (0x1)
    Complete name                  : D:\06 Macklemore & Ryan Lewis ft. Wanz - Thrift Shop - Billboard Music Awards 2013 720p HDTV 37 Mbps DTS-HD MA 5.1 H.264-TrollHD.ts
    Format                         : MPEG-TS
    File size                      : 1.30 GiB
    Duration                       : 4 min 37 s
    Overall bit rate mode          : Variable
    Overall bit rate               : 40.1 Mb/s
    
    Video
    ID                             : 4113 (0x1011)
    Menu ID                        : 1 (0x1)
    Format                         : AVC
    Format/Info                    : Advanced Video Codec
    Format profile                 : High@L4.1
    Format settings, CABAC         : Yes
    Format settings, RefFrames     : 6 frames
    Codec ID                       : 27
    Duration                       : 4 min 38 s
    Bit rate mode                  : Variable
    Maximum bit rate               : 40.0 Mb/s
    Width                          : 1 280 pixels
    Height                         : 720 pixels
    Display aspect ratio           : 16:9
    Frame rate                     : 59.940 (60000/1001) FPS
    Color space                    : YUV
    Chroma subsampling             : 4:2:0
    Bit depth                      : 8 bits
    Scan type                      : Progressive
    Color range                    : Limited
    Color primaries                : BT.709
    Transfer characteristics       : BT.709
    Matrix coefficients            : BT.709
    
    Audio #1
    ID                             : 4352 (0x1100)
    Menu ID                        : 1 (0x1)
    Format                         : DTS
    Format/Info                    : Digital Theater Systems
    Format profile                 : MA / Core
    Mode                           : 16
    Format settings, Endianness    : Big
    Muxing mode                    : Stream extension
    Codec ID                       : 134
    Duration                       : 4 min 38 s
    Bit rate mode                  : Variable / Constant
    Bit rate                       : Unknown / 1 509 kb/s
    Channel(s)                     : 6 channels
    Channel positions              : Front: L C R, Side: L R, LFE
    Sampling rate                  : 48.0 kHz
    Frame rate                     : 93.750 FPS (512 SPF)
    Bit depth                      : 16 bits
    Compression mode               : Lossless / Lossy
    Delay relative to video        : 7 ms
    Language                       : English
    
    Audio #2
    ID                             : 4353 (0x1101)
    Menu ID                        : 1 (0x1)
    Format                         : MPEG Audio
    Format version                 : Version 1
    Format profile                 : Layer 2
    Mode                           : Dual mono
    Codec ID                       : 4
    Duration                       : 4 min 38 s
    Bit rate mode                  : Constant
    Bit rate                       : 384 kb/s
    Channel(s)                     : 2 channels
    Sampling rate                  : 48.0 kHz
    Compression mode               : Lossy
    Delay relative to video        : 23 ms
    Stream size                    : 12.7 MiB (1%)
    Language                       : det
    Language, more info            : Clean effects

    [​IMG][​IMG]
    Code:
    General
    ID                             : 1 (0x1)
    Complete name                  : D:\07 Taylor Swift - 22 - Billboard Music Awards 2013 720p HDTV 37 Mbps DTS-HD MA 5.1 H.264-TrollHD.ts
    Format                         : MPEG-TS
    File size                      : 1.30 GiB
    Duration                       : 4 min 37 s
    Overall bit rate mode          : Variable
    Overall bit rate               : 40.3 Mb/s
    
    Video
    ID                             : 4113 (0x1011)
    Menu ID                        : 1 (0x1)
    Format                         : AVC
    Format/Info                    : Advanced Video Codec
    Format profile                 : High@L4.1
    Format settings, CABAC         : Yes
    Format settings, RefFrames     : 6 frames
    Codec ID                       : 27
    Duration                       : 4 min 37 s
    Bit rate mode                  : Variable
    Maximum bit rate               : 40.0 Mb/s
    Width                          : 1 280 pixels
    Height                         : 720 pixels
    Display aspect ratio           : 16:9
    Frame rate                     : 59.940 (60000/1001) FPS
    Color space                    : YUV
    Chroma subsampling             : 4:2:0
    Bit depth                      : 8 bits
    Scan type                      : Progressive
    Color range                    : Limited
    Color primaries                : BT.709
    Transfer characteristics       : BT.709
    Matrix coefficients            : BT.709
    
    Audio #1
    ID                             : 4352 (0x1100)
    Menu ID                        : 1 (0x1)
    Format                         : DTS
    Format/Info                    : Digital Theater Systems
    Format profile                 : MA / Core
    Mode                           : 16
    Format settings, Endianness    : Big
    Muxing mode                    : Stream extension
    Codec ID                       : 134
    Duration                       : 4 min 37 s
    Bit rate mode                  : Variable / Constant
    Bit rate                       : Unknown / 1 509 kb/s
    Channel(s)                     : 6 channels
    Channel positions              : Front: L C R, Side: L R, LFE
    Sampling rate                  : 48.0 kHz
    Frame rate                     : 93.750 FPS (512 SPF)
    Bit depth                      : 16 bits
    Compression mode               : Lossless / Lossy
    Delay relative to video        : 1 ms
    Language                       : English
    
    Audio #2
    ID                             : 4353 (0x1101)
    Menu ID                        : 1 (0x1)
    Format                         : MPEG Audio
    Format version                 : Version 1
    Format profile                 : Layer 2
    Mode                           : Dual mono
    Codec ID                       : 4
    Duration                       : 4 min 37 s
    Bit rate mode                  : Constant
    Bit rate                       : 384 kb/s
    Channel(s)                     : 2 channels
    Sampling rate                  : 48.0 kHz
    Compression mode               : Lossy
    Delay relative to video        : 4 ms
    Stream size                    : 12.7 MiB (1%)
    Language                       : det
    Language, more info            : Clean effects

    [​IMG][​IMG]
    Code:
    General
    ID                             : 1 (0x1)
    Complete name                  : D:\08 Kacey Musgraves - Merry Go 'Round - Billboard Music Awards 2013 720p HDTV 37 Mbps DTS-HD MA 5.1 H.264-TrollHD.ts
    Format                         : MPEG-TS
    File size                      : 852 MiB
    Duration                       : 2 min 59 s
    Overall bit rate mode          : Variable
    Overall bit rate               : 39.8 Mb/s
    
    Video
    ID                             : 4113 (0x1011)
    Menu ID                        : 1 (0x1)
    Format                         : AVC
    Format/Info                    : Advanced Video Codec
    Format profile                 : High@L4.1
    Format settings, CABAC         : Yes
    Format settings, RefFrames     : 6 frames
    Codec ID                       : 27
    Duration                       : 2 min 59 s
    Bit rate mode                  : Variable
    Maximum bit rate               : 40.0 Mb/s
    Width                          : 1 280 pixels
    Height                         : 720 pixels
    Display aspect ratio           : 16:9
    Frame rate                     : 59.940 (60000/1001) FPS
    Color space                    : YUV
    Chroma subsampling             : 4:2:0
    Bit depth                      : 8 bits
    Scan type                      : Progressive
    Color range                    : Limited
    Color primaries                : BT.709
    Transfer characteristics       : BT.709
    Matrix coefficients            : BT.709
    
    Audio #1
    ID                             : 4352 (0x1100)
    Menu ID                        : 1 (0x1)
    Format                         : DTS
    Format/Info                    : Digital Theater Systems
    Format profile                 : MA / Core
    Mode                           : 16
    Format settings, Endianness    : Big
    Muxing mode                    : Stream extension
    Codec ID                       : 134
    Duration                       : 2 min 59 s
    Bit rate mode                  : Variable / Constant
    Bit rate                       : Unknown / 1 509 kb/s
    Channel(s)                     : 6 channels
    Channel positions              : Front: L C R, Side: L R, LFE
    Sampling rate                  : 48.0 kHz
    Frame rate                     : 93.750 FPS (512 SPF)
    Bit depth                      : 16 bits
    Compression mode               : Lossless / Lossy
    Delay relative to video        : 5 ms
    Language                       : English
    
    Audio #2
    ID                             : 4353 (0x1101)
    Menu ID                        : 1 (0x1)
    Format                         : MPEG Audio
    Format version                 : Version 1
    Format profile                 : Layer 2
    Mode                           : Dual mono
    Codec ID                       : 4
    Duration                       : 2 min 59 s
    Bit rate mode                  : Constant
    Bit rate                       : 384 kb/s
    Channel(s)                     : 2 channels
    Sampling rate                  : 48.0 kHz
    Compression mode               : Lossy
    Delay relative to video        : 10 ms
    Stream size                    : 8.21 MiB (1%)
    Language                       : det
    Language, more info            : Clean effects

    [​IMG][​IMG]
    Code:
    General
    ID                             : 1 (0x1)
    Complete name                  : D:\09 Justin Bieber - Take You - Billboard Music Awards 2013 720p HDTV 37 Mbps DTS-HD MA 5.1 H.264-TrollHD.ts
    Format                         : MPEG-TS
    File size                      : 1.29 GiB
    Duration                       : 4 min 36 s
    Overall bit rate mode          : Variable
    Overall bit rate               : 40.2 Mb/s
    
    Video
    ID                             : 4113 (0x1011)
    Menu ID                        : 1 (0x1)
    Format                         : AVC
    Format/Info                    : Advanced Video Codec
    Format profile                 : High@L4.1
    Format settings, CABAC         : Yes
    Format settings, RefFrames     : 6 frames
    Codec ID                       : 27
    Duration                       : 4 min 36 s
    Bit rate mode                  : Variable
    Maximum bit rate               : 40.0 Mb/s
    Width                          : 1 280 pixels
    Height                         : 720 pixels
    Display aspect ratio           : 16:9
    Frame rate                     : 59.940 (60000/1001) FPS
    Color space                    : YUV
    Chroma subsampling             : 4:2:0
    Bit depth                      : 8 bits
    Scan type                      : Progressive
    Color range                    : Limited
    Color primaries                : BT.709
    Transfer characteristics       : BT.709
    Matrix coefficients            : BT.709
    
    Audio #1
    ID                             : 4352 (0x1100)
    Menu ID                        : 1 (0x1)
    Format                         : DTS
    Format/Info                    : Digital Theater Systems
    Format profile                 : MA / Core
    Mode                           : 16
    Format settings, Endianness    : Big
    Muxing mode                    : Stream extension
    Codec ID                       : 134
    Duration                       : 4 min 36 s
    Bit rate mode                  : Variable / Constant
    Bit rate                       : Unknown / 1 509 kb/s
    Channel(s)                     : 6 channels
    Channel positions              : Front: L C R, Side: L R, LFE
    Sampling rate                  : 48.0 kHz
    Frame rate                     : 93.750 FPS (512 SPF)
    Bit depth                      : 16 bits
    Compression mode               : Lossless / Lossy
    Delay relative to video        : 5 ms
    Language                       : English
    
    Audio #2
    ID                             : 4353 (0x1101)
    Menu ID                        : 1 (0x1)
    Format                         : MPEG Audio
    Format version                 : Version 1
    Format profile                 : Layer 2
    Mode                           : Dual mono
    Codec ID                       : 4
    Duration                       : 4 min 36 s
    Bit rate mode                  : Constant
    Bit rate                       : 384 kb/s
    Channel(s)                     : 2 channels
    Sampling rate                  : 48.0 kHz
    Compression mode               : Lossy
    Delay relative to video        : 13 ms
    Stream size                    : 12.7 MiB (1%)
    Language                       : det
    Language, more info            : Clean effects

    [​IMG][​IMG]
    Code:
    General
    ID                             : 1 (0x1)
    Complete name                  : D:\10 Pitbull ft. Christina Aguilera & Morten Harkel (a-ha) - Feel This Moment & Take on Me Billboard Music Awards 2013 720p HDTV 37 Mbps DTS-HD MA 5.1 H.264-TrollHD.ts
    Format                         : MPEG-TS
    File size                      : 1.02 GiB
    Duration                       : 3 min 36 s
    Overall bit rate mode          : Variable
    Overall bit rate               : 40.2 Mb/s
    
    Video
    ID                             : 4113 (0x1011)
    Menu ID                        : 1 (0x1)
    Format                         : AVC
    Format/Info                    : Advanced Video Codec
    Format profile                 : High@L4.1
    Format settings, CABAC         : Yes
    Format settings, RefFrames     : 6 frames
    Codec ID                       : 27
    Duration                       : 3 min 36 s
    Bit rate mode                  : Variable
    Maximum bit rate               : 40.0 Mb/s
    Width                          : 1 280 pixels
    Height                         : 720 pixels
    Display aspect ratio           : 16:9
    Frame rate                     : 59.940 (60000/1001) FPS
    Color space                    : YUV
    Chroma subsampling             : 4:2:0
    Bit depth                      : 8 bits
    Scan type                      : Progressive
    Color range                    : Limited
    Color primaries                : BT.709
    Transfer characteristics       : BT.709
    Matrix coefficients            : BT.709
    
    Audio #1
    ID                             : 4352 (0x1100)
    Menu ID                        : 1 (0x1)
    Format                         : DTS
    Format/Info                    : Digital Theater Systems
    Format profile                 : MA / Core
    Mode                           : 16
    Format settings, Endianness    : Big
    Muxing mode                    : Stream extension
    Codec ID                       : 134
    Duration                       : 3 min 36 s
    Bit rate mode                  : Variable / Constant
    Bit rate                       : Unknown / 1 509 kb/s
    Channel(s)                     : 6 channels
    Channel positions              : Front: L C R, Side: L R, LFE
    Sampling rate                  : 48.0 kHz
    Frame rate                     : 93.750 FPS (512 SPF)
    Bit depth                      : 16 bits
    Compression mode               : Lossless / Lossy
    Delay relative to video        : 7 ms
    Language                       : English
    
    Audio #2
    ID                             : 4353 (0x1101)
    Menu ID                        : 1 (0x1)
    Format                         : MPEG Audio
    Format version                 : Version 1
    Format profile                 : Layer 2
    Mode                           : Dual mono
    Codec ID                       : 4
    Duration                       : 3 min 36 s
    Bit rate mode                  : Constant
    Bit rate                       : 384 kb/s
    Channel(s)                     : 2 channels
    Sampling rate                  : 48.0 kHz
    Compression mode               : Lossy
    Delay relative to video        : 5 ms
    Stream size                    : 9.93 MiB (1%)
    Language                       : det
    Language, more info            : Clean effects

    [​IMG][​IMG]
    Code:
    General
    ID                             : 1 (0x1)
    Complete name                  : D:\11 Miguel - Adorn - Billboard Music Awards 2013 720p HDTV 37 Mbps DTS-HD MA 5.1 H.264-TrollHD.ts
    Format                         : MPEG-TS
    File size                      : 1.13 GiB
    Duration                       : 4 min 1 s
    Overall bit rate mode          : Variable
    Overall bit rate               : 40.1 Mb/s
    
    Video
    ID                             : 4113 (0x1011)
    Menu ID                        : 1 (0x1)
    Format                         : AVC
    Format/Info                    : Advanced Video Codec
    Format profile                 : High@L4.1
    Format settings, CABAC         : Yes
    Format settings, RefFrames     : 6 frames
    Codec ID                       : 27
    Duration                       : 4 min 1 s
    Bit rate mode                  : Variable
    Maximum bit rate               : 40.0 Mb/s
    Width                          : 1 280 pixels
    Height                         : 720 pixels
    Display aspect ratio           : 16:9
    Frame rate                     : 59.940 (60000/1001) FPS
    Color space                    : YUV
    Chroma subsampling             : 4:2:0
    Bit depth                      : 8 bits
    Scan type                      : Progressive
    Color range                    : Limited
    Color primaries                : BT.709
    Transfer characteristics       : BT.709
    Matrix coefficients            : BT.709
    
    Audio #1
    ID                             : 4352 (0x1100)
    Menu ID                        : 1 (0x1)
    Format                         : DTS
    Format/Info                    : Digital Theater Systems
    Format profile                 : MA / Core
    Mode                           : 16
    Format settings, Endianness    : Big
    Muxing mode                    : Stream extension
    Codec ID                       : 134
    Duration                       : 4 min 1 s
    Bit rate mode                  : Variable / Constant
    Bit rate                       : Unknown / 1 509 kb/s
    Channel(s)                     : 6 channels
    Channel positions              : Front: L C R, Side: L R, LFE
    Sampling rate                  : 48.0 kHz
    Frame rate                     : 93.750 FPS (512 SPF)
    Bit depth                      : 16 bits
    Compression mode               : Lossless / Lossy
    Delay relative to video        : 9 ms
    Language                       : English
    
    Audio #2
    ID                             : 4353 (0x1101)
    Menu ID                        : 1 (0x1)
    Format                         : MPEG Audio
    Format version                 : Version 1
    Format profile                 : Layer 2
    Mode                           : Dual mono
    Codec ID                       : 4
    Duration                       : 4 min 1 s
    Bit rate mode                  : Constant
    Bit rate                       : 384 kb/s
    Channel(s)                     : 2 channels
    Sampling rate                  : 48.0 kHz
    Compression mode               : Lossy
    Delay relative to video        : 23 ms
    Stream size                    : 11.0 MiB (1%)
    Language                       : det
    Language, more info            : Clean effects

    [​IMG][​IMG]
    Code:
    General
    ID                             : 1 (0x1)
    Complete name                  : D:\12 Ed Sheeran - Lego House - Billboard Music Awards 2013 720p HDTV 37 Mbps DTS-HD MA 5.1 H.264-TrollHD.ts
    Format                         : MPEG-TS
    File size                      : 996 MiB
    Duration                       : 3 min 29 s
    Overall bit rate mode          : Variable
    Overall bit rate               : 39.7 Mb/s
    
    Video
    ID                             : 4113 (0x1011)
    Menu ID                        : 1 (0x1)
    Format                         : AVC
    Format/Info                    : Advanced Video Codec
    Format profile                 : High@L4.1
    Format settings, CABAC         : Yes
    Format settings, RefFrames     : 6 frames
    Codec ID                       : 27
    Duration                       : 3 min 29 s
    Bit rate mode                  : Variable
    Maximum bit rate               : 40.0 Mb/s
    Width                          : 1 280 pixels
    Height                         : 720 pixels
    Display aspect ratio           : 16:9
    Frame rate                     : 59.940 (60000/1001) FPS
    Color space                    : YUV
    Chroma subsampling             : 4:2:0
    Bit depth                      : 8 bits
    Scan type                      : Progressive
    Color range                    : Limited
    Color primaries                : BT.709
    Transfer characteristics       : BT.709
    Matrix coefficients            : BT.709
    
    Audio #1
    ID                             : 4352 (0x1100)
    Menu ID                        : 1 (0x1)
    Format                         : DTS
    Format/Info                    : Digital Theater Systems
    Format profile                 : MA / Core
    Mode                           : 16
    Format settings, Endianness    : Big
    Muxing mode                    : Stream extension
    Codec ID                       : 134
    Duration                       : 3 min 29 s
    Bit rate mode                  : Variable / Constant
    Bit rate                       : Unknown / 1 509 kb/s
    Channel(s)                     : 6 channels
    Channel positions              : Front: L C R, Side: L R, LFE
    Sampling rate                  : 48.0 kHz
    Frame rate                     : 93.750 FPS (512 SPF)
    Bit depth                      : 16 bits
    Compression mode               : Lossless / Lossy
    Delay relative to video        : 9 ms
    Language                       : English
    
    Audio #2
    ID                             : 4353 (0x1101)
    Menu ID                        : 1 (0x1)
    Format                         : MPEG Audio
    Format version                 : Version 1
    Format profile                 : Layer 2
    Mode                           : Dual mono
    Codec ID                       : 4
    Duration                       : 3 min 29 s
    Bit rate mode                  : Constant
    Bit rate                       : 384 kb/s
    Channel(s)                     : 2 channels
    Sampling rate                  : 48.0 kHz
    Compression mode               : Lossy
    Delay relative to video        : 17 ms
    Stream size                    : 9.61 MiB (1%)
    Language                       : det
    Language, more info            : Clean effects

    [​IMG][​IMG]
    Code:
    General
    ID                             : 1 (0x1)
    Complete name                  : D:\13 Jennifer Lopez ft. Pitbull - Live It Up - Billboard Music Awards 2013 720p HDTV 37 Mbps DTS-HD MA 5.1 H.264-TrollHD.ts
    Format                         : MPEG-TS
    File size                      : 1.46 GiB
    Duration                       : 5 min 11 s
    Overall bit rate mode          : Variable
    Overall bit rate               : 40.2 Mb/s
    
    Video
    ID                             : 4113 (0x1011)
    Menu ID                        : 1 (0x1)
    Format                         : AVC
    Format/Info                    : Advanced Video Codec
    Format profile                 : High@L4.1
    Format settings, CABAC         : Yes
    Format settings, RefFrames     : 6 frames
    Codec ID                       : 27
    Duration                       : 5 min 12 s
    Bit rate mode                  : Variable
    Maximum bit rate               : 40.0 Mb/s
    Width                          : 1 280 pixels
    Height                         : 720 pixels
    Display aspect ratio           : 16:9
    Frame rate                     : 59.940 (60000/1001) FPS
    Color space                    : YUV
    Chroma subsampling             : 4:2:0
    Bit depth                      : 8 bits
    Scan type                      : Progressive
    Color range                    : Limited
    Color primaries                : BT.709
    Transfer characteristics       : BT.709
    Matrix coefficients            : BT.709
    
    Audio #1
    ID                             : 4352 (0x1100)
    Menu ID                        : 1 (0x1)
    Format                         : DTS
    Format/Info                    : Digital Theater Systems
    Format profile                 : MA / Core
    Mode                           : 16
    Format settings, Endianness    : Big
    Muxing mode                    : Stream extension
    Codec ID                       : 134
    Duration                       : 5 min 12 s
    Bit rate mode                  : Variable / Constant
    Bit rate                       : Unknown / 1 509 kb/s
    Channel(s)                     : 6 channels
    Channel positions              : Front: L C R, Side: L R, LFE
    Sampling rate                  : 48.0 kHz
    Frame rate                     : 93.750 FPS (512 SPF)
    Bit depth                      : 16 bits
    Compression mode               : Lossless / Lossy
    Delay relative to video        : 10 ms
    Language                       : English
    
    Audio #2
    ID                             : 4353 (0x1101)
    Menu ID                        : 1 (0x1)
    Format                         : MPEG Audio
    Format version                 : Version 1
    Format profile                 : Layer 2
    Mode                           : Dual mono
    Codec ID                       : 4
    Duration                       : 5 min 12 s
    Bit rate mode                  : Constant
    Bit rate                       : 384 kb/s
    Channel(s)                     : 2 channels
    Sampling rate                  : 48.0 kHz
    Compression mode               : Lossy
    Delay relative to video        : 16 ms
    Stream size                    : 14.3 MiB (1%)
    Language                       : det
    Language, more info            : Clean effects

    [​IMG][​IMG]
    Code:
    General
    ID                             : 1 (0x1)
    Complete name                  : D:\14 will.i.am ft. Justin Bieber - #thatPOWER - Billboard Music Awards 2013 720p HDTV 37 Mbps DTS-HD MA 5.1 H.264-TrollHD.ts
    Format                         : MPEG-TS
    File size                      : 1.13 GiB
    Duration                       : 4 min 1 s
    Overall bit rate mode          : Variable
    Overall bit rate               : 40.2 Mb/s
    
    Video
    ID                             : 4113 (0x1011)
    Menu ID                        : 1 (0x1)
    Format                         : AVC
    Format/Info                    : Advanced Video Codec
    Format profile                 : High@L4.1
    Format settings, CABAC         : Yes
    Format settings, RefFrames     : 6 frames
    Codec ID                       : 27
    Duration                       : 4 min 1 s
    Bit rate mode                  : Variable
    Maximum bit rate               : 40.0 Mb/s
    Width                          : 1 280 pixels
    Height                         : 720 pixels
    Display aspect ratio           : 16:9
    Frame rate                     : 59.940 (60000/1001) FPS
    Color space                    : YUV
    Chroma subsampling             : 4:2:0
    Bit depth                      : 8 bits
    Scan type                      : Progressive
    Color range                    : Limited
    Color primaries                : BT.709
    Transfer characteristics       : BT.709
    Matrix coefficients            : BT.709
    
    Audio #1
    ID                             : 4352 (0x1100)
    Menu ID                        : 1 (0x1)
    Format                         : DTS
    Format/Info                    : Digital Theater Systems
    Format profile                 : MA / Core
    Mode                           : 16
    Format settings, Endianness    : Big
    Muxing mode                    : Stream extension
    Codec ID                       : 134
    Duration                       : 4 min 1 s
    Bit rate mode                  : Variable / Constant
    Bit rate                       : Unknown / 1 509 kb/s
    Channel(s)                     : 6 channels
    Channel positions              : Front: L C R, Side: L R, LFE
    Sampling rate                  : 48.0 kHz
    Frame rate                     : 93.750 FPS (512 SPF)
    Bit depth                      : 16 bits
    Compression mode               : Lossless / Lossy
    Delay relative to video        : 7 ms
    Language                       : English
    
    Audio #2
    ID                             : 4353 (0x1101)
    Menu ID                        : 1 (0x1)
    Format                         : MPEG Audio
    Format version                 : Version 1
    Format profile                 : Layer 2
    Mode                           : Dual mono
    Codec ID                       : 4
    Duration                       : 4 min 1 s
    Bit rate mode                  : Constant
    Bit rate                       : 384 kb/s
    Channel(s)                     : 2 channels
    Sampling rate                  : 48.0 kHz
    Compression mode               : Lossy
    Delay relative to video        : 18 ms
    Stream size                    : 11.1 MiB (1%)
    Language                       : det
    Language, more info            : Clean effects

    [​IMG][​IMG]
    Code:
    General
    ID                             : 1 (0x1)
    Complete name                  : D:\15 David Guetta ft. Akon & Ne-Yo - Play Hard - Billboard Music Awards 2013 720p HDTV 37 Mbps DTS-HD MA 5.1 H.264-TrollHD.ts
    Format                         : MPEG-TS
    File size                      : 1.16 GiB
    Duration                       : 4 min 6 s
    Overall bit rate mode          : Variable
    Overall bit rate               : 40.3 Mb/s
    
    Video
    ID                             : 4113 (0x1011)
    Menu ID                        : 1 (0x1)
    Format                         : AVC
    Format/Info                    : Advanced Video Codec
    Format profile                 : High@L4.1
    Format settings, CABAC         : Yes
    Format settings, RefFrames     : 6 frames
    Codec ID                       : 27
    Duration                       : 4 min 6 s
    Bit rate mode                  : Variable
    Maximum bit rate               : 40.0 Mb/s
    Width                          : 1 280 pixels
    Height                         : 720 pixels
    Display aspect ratio           : 16:9
    Frame rate                     : 59.940 (60000/1001) FPS
    Color space                    : YUV
    Chroma subsampling             : 4:2:0
    Bit depth                      : 8 bits
    Scan type                      : Progressive
    Color range                    : Limited
    Color primaries                : BT.709
    Transfer characteristics       : BT.709
    Matrix coefficients            : BT.709
    
    Audio #1
    ID                             : 4352 (0x1100)
    Menu ID                        : 1 (0x1)
    Format                         : DTS
    Format/Info                    : Digital Theater Systems
    Format profile                 : MA / Core
    Mode                           : 16
    Format settings, Endianness    : Big
    Muxing mode                    : Stream extension
    Codec ID                       : 134
    Duration                       : 4 min 6 s
    Bit rate mode                  : Variable / Constant
    Bit rate                       : Unknown / 1 509 kb/s
    Channel(s)                     : 6 channels
    Channel positions              : Front: L C R, Side: L R, LFE
    Sampling rate                  : 48.0 kHz
    Frame rate                     : 93.750 FPS (512 SPF)
    Bit depth                      : 16 bits
    Compression mode               : Lossless / Lossy
    Delay relative to video        : 1 ms
    Language                       : English
    
    Audio #2
    ID                             : 4353 (0x1101)
    Menu ID                        : 1 (0x1)
    Format                         : MPEG Audio
    Format version                 : Version 1
    Format profile                 : Layer 2
    Mode                           : Dual mono
    Codec ID                       : 4
    Duration                       : 4 min 6 s
    Bit rate mode                  : Constant
    Bit rate                       : 384 kb/s
    Channel(s)                     : 2 channels
    Sampling rate                  : 48.0 kHz
    Compression mode               : Lossy
    Delay relative to video        : 17 ms
    Stream size                    : 11.3 MiB (1%)
    Language                       : det
    Language, more info            : Clean effects

    [​IMG][​IMG]
    Code:
    General
    ID                             : 1 (0x1)
    Complete name                  : D:\16 Nicki Minaj ft. Lil Wayne - High School - Billboard Music Awards 2013 720p HDTV 37 Mbps DTS-HD MA 5.1 H.264-TrollHD.ts
    Format                         : MPEG-TS
    File size                      : 1.12 GiB
    Duration                       : 3 min 58 s
    Overall bit rate mode          : Variable
    Overall bit rate               : 40.2 Mb/s
    
    Video
    ID                             : 4113 (0x1011)
    Menu ID                        : 1 (0x1)
    Format                         : AVC
    Format/Info                    : Advanced Video Codec
    Format profile                 : High@L4.1
    Format settings, CABAC         : Yes
    Format settings, RefFrames     : 6 frames
    Codec ID                       : 27
    Duration                       : 3 min 58 s
    Bit rate mode                  : Variable
    Maximum bit rate               : 40.0 Mb/s
    Width                          : 1 280 pixels
    Height                         : 720 pixels
    Display aspect ratio           : 16:9
    Frame rate                     : 59.940 (60000/1001) FPS
    Color space                    : YUV
    Chroma subsampling             : 4:2:0
    Bit depth                      : 8 bits
    Scan type                      : Progressive
    Color range                    : Limited
    Color primaries                : BT.709
    Transfer characteristics       : BT.709
    Matrix coefficients            : BT.709
    
    Audio #1
    ID                             : 4352 (0x1100)
    Menu ID                        : 1 (0x1)
    Format                         : DTS
    Format/Info                    : Digital Theater Systems
    Format profile                 : MA / Core
    Mode                           : 16
    Format settings, Endianness    : Big
    Muxing mode                    : Stream extension
    Codec ID                       : 134
    Duration                       : 3 min 58 s
    Bit rate mode                  : Variable / Constant
    Bit rate                       : Unknown / 1 509 kb/s
    Channel(s)                     : 6 channels
    Channel positions              : Front: L C R, Side: L R, LFE
    Sampling rate                  : 48.0 kHz
    Frame rate                     : 93.750 FPS (512 SPF)
    Bit depth                      : 16 bits
    Compression mode               : Lossless / Lossy
    Delay relative to video        : 6 ms
    Language                       : English
    
    Audio #2
    ID                             : 4353 (0x1101)
    Menu ID                        : 1 (0x1)
    Format                         : MPEG Audio
    Format version                 : Version 1
    Format profile                 : Layer 2
    Mode                           : Dual mono
    Codec ID                       : 4
    Duration                       : 3 min 58 s
    Bit rate mode                  : Constant
    Bit rate                       : 384 kb/s
    Channel(s)                     : 2 channels
    Sampling rate                  : 48.0 kHz
    Compression mode               : Lossy
    Delay relative to video        : 6 ms
    Stream size                    : 10.9 MiB (1%)
    Language                       : det
    Language, more info            : Clean effects

    [​IMG][​IMG]
    Code:
    General
    ID                             : 1 (0x1)
    Complete name                  : D:\17 Prince - Let's Go Crazy & FixUrLifeUp - Billboard Music Awards 2013 720p HDTV 37 Mbps DTS-HD MA 5.1 H.264-TrollHD.ts
    Format                         : MPEG-TS
    File size                      : 1.70 GiB
    Duration                       : 6 min 2 s
    Overall bit rate mode          : Variable
    Overall bit rate               : 40.2 Mb/s
    
    Video
    ID                             : 4113 (0x1011)
    Menu ID                        : 1 (0x1)
    Format                         : AVC
    Format/Info                    : Advanced Video Codec
    Format profile                 : High@L4.1
    Format settings, CABAC         : Yes
    Format settings, RefFrames     : 6 frames
    Codec ID                       : 27
    Duration                       : 6 min 2 s
    Bit rate mode                  : Variable
    Maximum bit rate               : 40.0 Mb/s
    Width                          : 1 280 pixels
    Height                         : 720 pixels
    Display aspect ratio           : 16:9
    Frame rate                     : 59.940 (60000/1001) FPS
    Color space                    : YUV
    Chroma subsampling             : 4:2:0
    Bit depth                      : 8 bits
    Scan type                      : Progressive
    Color range                    : Limited
    Color primaries                : BT.709
    Transfer characteristics       : BT.709
    Matrix coefficients            : BT.709
    
    Audio #1
    ID                             : 4352 (0x1100)
    Menu ID                        : 1 (0x1)
    Format                         : DTS
    Format/Info                    : Digital Theater Systems
    Format profile                 : MA / Core
    Mode                           : 16
    Format settings, Endianness    : Big
    Muxing mode                    : Stream extension
    Codec ID                       : 134
    Duration                       : 6 min 2 s
    Bit rate mode                  : Variable / Constant
    Bit rate                       : Unknown / 1 509 kb/s
    Channel(s)                     : 6 channels
    Channel positions              : Front: L C R, Side: L R, LFE
    Sampling rate                  : 48.0 kHz
    Frame rate                     : 93.750 FPS (512 SPF)
    Bit depth                      : 16 bits
    Compression mode               : Lossless / Lossy
    Delay relative to video        : 1 ms
    Language                       : English
    
    Audio #2
    ID                             : 4353 (0x1101)
    Menu ID                        : 1 (0x1)
    Format                         : MPEG Audio
    Format version                 : Version 1
    Format profile                 : Layer 2
    Mode                           : Dual mono
    Codec ID                       : 4
    Duration                       : 6 min 2 s
    Bit rate mode                  : Constant
    Bit rate                       : 384 kb/s
    Channel(s)                     : 2 channels
    Sampling rate                  : 48.0 kHz
    Compression mode               : Lossy
    Delay relative to video        : 12 ms
    Stream size                    : 16.6 MiB (1%)
    Language                       : det
    Language, more info            : Clean effects

    Hidden Content:
    You must reply before you can see the hidden data contained here.
    Credits to the original capper :)
    PS: Pictures updated May 22nd 2018.
     
    Last edited: May 22, 2018
    jgil00, jloismyhq, EDEKA3 and 6 others like this.
  2. Loading...


  3. detroit1

    detroit1 Well-Known Member

    Joined:
    Jan 6, 2014
    Messages:
    3,043
    Likes Received:
    413
    THANK YOU
     
  4. thetruth

    thetruth Member

    Joined:
    Jan 7, 2014
    Messages:
    88
    Likes Received:
    2
    thanks
     
  5. Gustavofl91

    Gustavofl91 Gustavofl

    Joined:
    May 11, 2017
    Messages:
    720
    Likes Received:
    29
  6. MarkHorax

    MarkHorax Well-Known Member

    Joined:
    Dec 10, 2016
    Messages:
    491
    Likes Received:
    546
    Thank you!
     
  7. Fernando

    Fernando Member

    Joined:
    Jul 22, 2014
    Messages:
    838
    Likes Received:
    18
    thanks
     
  8. Adaros

    Adaros Active Member

    Joined:
    Jun 5, 2016
    Messages:
    664
    Likes Received:
    90
    Thanks
     
  9. carlos69

    carlos69 Well-Known Member

    Joined:
    Dec 17, 2013
    Messages:
    1,251
    Likes Received:
    92
    Thanks
     
  10. Bellower

    Bellower Active Member

    Joined:
    Oct 22, 2014
    Messages:
    104
    Likes Received:
    37
    Thanks for this one!
     
  11. dersullana

    dersullana Well-Known Member

    Joined:
    Dec 21, 2015
    Messages:
    1,001
    Likes Received:
    52
  12. bjellerud

    bjellerud Member

    Joined:
    Jan 7, 2018
    Messages:
    200
    Likes Received:
    17
    thanks
     
  13. redfive

    redfive Member

    Joined:
    Mar 11, 2016
    Messages:
    138
    Likes Received:
    3
    Thank you
     
  14. snow69

    snow69 Active Member

    Joined:
    Jan 1, 2017
    Messages:
    236
    Likes Received:
    40
    Thank you!!
     
  15. zuluka

    zuluka Well-Known Member

    Joined:
    Jul 9, 2016
    Messages:
    1,019
    Likes Received:
    31
    thanks
     
  16. shock ben

    shock ben Active Member

    Joined:
    Aug 8, 2016
    Messages:
    403
    Likes Received:
    45
    yes thx
     
  17. tetard

    tetard Well-Known Member V . I . P.

    Joined:
    Mar 29, 2014
    Messages:
    2,151
    Likes Received:
    3,802
    Thank you
     
  18. femmemonsters

    femmemonsters Active Member

    Joined:
    Oct 8, 2015
    Messages:
    753
    Likes Received:
    39
  19. yhkim

    yhkim Active Member

    Joined:
    Nov 19, 2013
    Messages:
    964
    Likes Received:
    12
    thank you so much
     
  20. orionN

    orionN Active Member

    Joined:
    Jan 26, 2018
    Messages:
    617
    Likes Received:
    38
    thanks for jenifer
     
  21. Danny82

    Danny82 Well-Known Member

    Joined:
    May 28, 2016
    Messages:
    2,358
    Likes Received:
    654
    Thank you so much!!!