Beyonce - Sweet Dreams 1080p

Discussion in 'Music Videos' started by hanshermann, Jan 9, 2018.

  1. hanshermann

    hanshermann Well-Known Member Uploader

    Joined:
    Aug 24, 2016
    Messages:
    7,536
    Likes Received:
    13,403
    [​IMG]

    Beyonce - Sweet Dreams 1080p

    Code:
    General
    Complete name               : Beyonce - Sweet Dreams.mp4
    Format                      : MPEG-4
    Format profile              : Base Media / Version 2
    Codec ID                    : mp42 (mp42/isom)
    File size                   : 215 MiB
    Duration                    : 4 min 8 s
    Overall bit rate mode       : Variable
    Overall bit rate            : 7 267 kb/s
    Comment                     : thankstome
    
    Video
    ID                          : 1
    Format                      : MPEG-4 Visual
    Format profile              : Advanced Simple@L5
    Format settings, BVOP       : Yes
    Format settings, QPel       : No
    Format settings, GMC        : No warppoints
    Format settings, Matrix     : Default (H.263)
    Codec ID                    : 20
    Duration                    : 4 min 8 s
    Bit rate                    : 7 100 kb/s
    Width                       : 1 920 pixels
    Height                      : 1 080 pixels
    Display aspect ratio        : 16:9
    Frame rate mode             : Variable
    Frame rate                  : 29.970 (30000/1001) FPS
    Minimum frame rate          : 29.960 FPS
    Maximum frame rate          : 29.980 FPS
    Original frame rate         : 25.000 FPS
    Color space                 : YUV
    Chroma subsampling          : 4:2:0
    Bit depth                   : 8 bits
    Scan type                   : Progressive
    Compression mode            : Lossy
    Bits/(Pixel*Frame)          : 0.114
    Stream size                 : 210 MiB (98%)
    Writing library             : XviD 64
    Language                    : English
    
    Audio
    ID                          : 2
    Format                      : AAC
    Format/Info                 : Advanced Audio Codec
    Format profile              : LC
    Codec ID                    : 40
    Duration                    : 4 min 8 s
    Bit rate mode               : Variable
    Bit rate                    : 160 kb/s
    Channel(s)                  : 2 channels
    Channel positions           : Front: L R
    Sampling rate               : 48.0 kHz
    Frame rate                  : 46.875 FPS (1024 spf)
    Compression mode            : Lossy
    Stream size                 : 4.74 MiB (2%)
    Language                    : English
    
    Hidden Content:
    You must either reply or click 'Like' to see the hidden information contained here.
     
    Last edited: Apr 13, 2018
  2. Loading...


  3. free2world

    free2world Member

    Joined:
    Apr 2, 2016
    Messages:
    162
    Likes Received:
    4
    thanks.
     
  4. toonbbv

    toonbbv Well-Known Member

    Joined:
    Dec 11, 2013
    Messages:
    2,289
    Likes Received:
    108
    thank you
     
  5. masterofcum69

    masterofcum69 Member

    Joined:
    Oct 2, 2017
    Messages:
    63
    Likes Received:
    0
  6. igio

    igio Member

    Joined:
    Aug 12, 2017
    Messages:
    89
    Likes Received:
    2
    gracias
     
  7. leandronbl

    leandronbl New Member

    Joined:
    May 20, 2017
    Messages:
    14
    Likes Received:
    0
    Obrigado
     
  8. revallsayREV

    revallsayREV Member

    Joined:
    Oct 28, 2017
    Messages:
    168
    Likes Received:
    4
  9. jhonjhondown

    jhonjhondown Member

    Joined:
    Aug 14, 2016
    Messages:
    770
    Likes Received:
    19
  10. nasir.foster

    nasir.foster Member

    Joined:
    Oct 16, 2017
    Messages:
    167
    Likes Received:
    8
    thanks
     
  11. khan

    khan Well-Known Member

    Joined:
    May 11, 2014
    Messages:
    1,660
    Likes Received:
    115
    thanks
     
  12. mizdot

    mizdot Well-Known Member

    Joined:
    Nov 13, 2014
    Messages:
    3,067
    Likes Received:
    127
    tnx man
     
  13. fendyzachariey

    fendyzachariey Member

    Joined:
    Jun 23, 2017
    Messages:
    480
    Likes Received:
    8
  14. Jesus Miguel Rivero

    Jesus Miguel Rivero Well-Known Member

    Joined:
    Jul 9, 2015
    Messages:
    1,421
    Likes Received:
    37
  15. Mat123

    Mat123 Member

    Joined:
    Jan 9, 2018
    Messages:
    740
    Likes Received:
    14
    thanks
     
  16. D3mon86

    D3mon86 Member

    Joined:
    Dec 19, 2016
    Messages:
    994
    Likes Received:
    19
    thanks
     
  17. VIVAfan1991

    VIVAfan1991 Active Member

    Joined:
    Jan 11, 2018
    Messages:
    760
    Likes Received:
    55
  18. VIVAfan1991

    VIVAfan1991 Active Member

    Joined:
    Jan 11, 2018
    Messages:
    760
    Likes Received:
    55
  19. KellyCunha1231

    KellyCunha1231 Member

    Joined:
    Feb 20, 2018
    Messages:
    69
    Likes Received:
    0
  20. bezvezesad

    bezvezesad Member

    Joined:
    May 25, 2017
    Messages:
    792
    Likes Received:
    21
  21. thefano

    thefano Member

    Joined:
    Mar 1, 2018
    Messages:
    30
    Likes Received:
    1
    thaks