Beyonce - Single Ladies (VIVAHD-1080i-DD2.0-Djodjara)-HDMania

Discussion in 'VIVA HD' started by Djodjara, Jan 31, 2015.

  1. Djodjara

    Djodjara Gwen Fan Capper

    Joined:
    Sep 6, 2014
    Messages:
    689
    Likes Received:
    1,129
    Beyonce - Single Ladies (VIVA HD-1080i-Djodjara)-HDMania

    [​IMG]
    [​IMG]

    General:
    ID : 1 (0x1)
    Format : MPEG-TS
    File size : 213 MiB
    Duration : 3mn 18s
    Overall bit rate mode : Variable
    Overall bit rate : 9 021 Kbps

    Video:
    ID : 528 (0x210)
    Menu ID : 1 (0x1)
    Format : AVC
    Format/Info : Advanced Video Codec
    Format profile : [email protected]
    Format settings, CABAC : Yes
    Format settings, ReFrames : 3 frames
    Format settings, GOP : M=4, N=24
    Codec ID : 27
    Duration : 3mn 18s
    Bit rate : 8 123 Kbps
    Width : 1 920 pixels
    Height : 1 080 pixels
    Display aspect ratio : 16:9
    Frame rate : 25.000 fps
    Standard : Component
    Color space : YUV
    Chroma subsampling : 4:2:0
    Bit depth : 8 bits
    Scan type : Interlaced
    Scan order : Top Field First
    Bits/(Pixel*Frame) : 0.157
    Stream size : 192 MiB (90%)
    Color primaries : BT.709
    Transfer characteristics : BT.709
    Matrix coefficients : BT.709
    Color range : Limited

    Audio #1:
    ID : 529 (0x211)
    Menu ID : 1 (0x1)
    Format : MPEG Audio
    Format version : Version 1
    Format profile : Layer 2
    Codec ID : 3
    Duration : 3mn 18s
    Bit rate mode : Constant
    Bit rate : 256 Kbps
    Channel(s) : 2 channels
    Sampling rate : 48.0 KHz
    Compression mode : Lossy
    Stream size : 6.05 MiB (3%)
    Language : German

    Audio #2:
    ID : 539 (0x21B)
    Menu ID : 1 (0x1)
    Format : AC-3
    Format/Info : Audio Coding 3
    Mode extension : HI (hearing impaired)
    Format settings, Endianness : Big
    Codec ID : 6
    Duration : 3mn 18s
    Bit rate mode : Constant
    Bit rate : 192 Kbps
    Channel(s) : 2 channels
    Channel positions : Front: L R
    Sampling rate : 48.0 KHz
    Bit depth : 16 bits
    Compression mode : Lossy
    Stream size : 4.54 MiB (2%)
    Language : German

    Hidden Content:
    You must reply before you can see the hidden data contained here.
     
    revilo18, CELOBRAZiL and rhea like this.
  2. Dreamer

    Dreamer Lana Del Rey ♥ Capper Uploader

    Joined:
    Dec 4, 2014
    Messages:
    2,391
    Likes Received:
    2,404
    Thank u
     
  3. hungquocphan

    hungquocphan Member

    Joined:
    Nov 1, 2013
    Messages:
    446
    Likes Received:
    12
    thank for share
     
  4. rhea

    rhea Well-Known Member

    Joined:
    Jan 6, 2014
    Messages:
    5,534
    Likes Received:
    307
    thank you so much :)
     
  5. Crusha

    Crusha Well-Known Member Capper

    Joined:
    Oct 15, 2014
    Messages:
    2,350
    Likes Received:
    2,212
    thank you very much
     
  6. ALP3R

    ALP3R Member

    Joined:
    Apr 19, 2014
    Messages:
    125
    Likes Received:
    3
    thank u
     
  7. GHN

    GHN Member

    Joined:
    Oct 27, 2014
    Messages:
    420
    Likes Received:
    10
    thank you
     
  8. slill

    slill Member

    Joined:
    Jul 25, 2014
    Messages:
    929
    Likes Received:
    11
    thanks
     
  9. ytyh

    ytyh Member

    Joined:
    Mar 30, 2014
    Messages:
    432
    Likes Received:
    4
    thank you very much
     
  10. DennisAvA

    DennisAvA Member

    Joined:
    Nov 15, 2014
    Messages:
    31
    Likes Received:
    1
    Thank you
     
  11. dreemo

    dreemo Member

    Joined:
    Mar 13, 2015
    Messages:
    76
    Likes Received:
    1
    nice. thank you
     
  12. Marcos Sannin

    Marcos Sannin Active Member

    Joined:
    Dec 11, 2014
    Messages:
    214
    Likes Received:
    53
    I Like Her
     
  13. furkan

    furkan Member

    Joined:
    Oct 9, 2015
    Messages:
    214
    Likes Received:
    3
    thnks youuuuu
     
  14. STONECOLD2020

    STONECOLD2020 Member

    Joined:
    Nov 6, 2015
    Messages:
    204
    Likes Received:
    14
    thank you very much
     
  15. limonato

    limonato Member

    Joined:
    Dec 1, 2014
    Messages:
    202
    Likes Received:
    3
    thank you
     
  16. scrowdid

    scrowdid New Member

    Joined:
    Jan 14, 2016
    Messages:
    1
    Likes Received:
    0
    great video
     
  17. yonita

    yonita Active Member

    Joined:
    Mar 7, 2016
    Messages:
    393
    Likes Received:
    38
    gracias :3
     
  18. Aitz

    Aitz New Member

    Joined:
    Apr 4, 2016
    Messages:
    5
    Likes Received:
    0
    thankss
     
  19. alberto piper naro

    alberto piper naro Member

    Joined:
    Jul 4, 2015
    Messages:
    415
    Likes Received:
    12
  20. revilo18

    revilo18 Well-Known Member

    Joined:
    May 26, 2016
    Messages:
    1,479
    Likes Received:
    60
    thank