Beyonce - Single Ladies (Palladia) - HD 1080i

Discussion in 'PALLADIA' started by rgf72k, Oct 30, 2013.

  1. rgf72k

    rgf72k Founder Staff Member AdMiN

    Joined:
    Oct 1, 2013
    Messages:
    1,020
    Likes Received:
    14,942
    [​IMG]

    Code:
          Complete name : Beyonce - Single Ladies (Palladia) - HD 1080i - VideoMan.ts
          Format : MPEG-TS
          File size : 337 MiB
          Duration : 3mn 18s
          Overall bit rate mode : Variable
          Overall bit rate : 14.2 Mbps
      Video #4113
          ID : 4113 (0x1011)
          Menu ID : 1 (0x1)
          Format : AVC
          Format/Info : Advanced Video Codec
          Format profile : [email protected]
          Format settings, CABAC : Yes
          Format settings, ReFrames : 4 frames
          Format settings, GOP : M=4, N=32
          Codec ID : 27
          Duration : 3mn 18s
          Bit rate mode : Variable
          Bit rate : 13.1 Mbps
          Maximum bit rate : 20.0 Mbps
          Width : 1 920 pixels
          Height : 1 080 pixels
          Display aspect ratio : 16:9
          Frame rate : 29.970 fps
          Color space : YUV
          Chroma subsampling : 4:2:0
          Bit depth : 8 bits
          Scan type : Interlaced
          Scan order : Top Field First
          Bits/(Pixel*Frame) : 0.211
          Stream size : 311 MiB (92%)
          Color primaries : BT.709
          Transfer characteristics : BT.709
          Matrix coefficients : BT.709
      Audio #4352
          ID : 4352 (0x1100)
          Menu ID : 1 (0x1)
          Format : AC-3
          Format/Info : Audio Coding 3
          Mode extension : CM (complete main)
          Format settings, Endianness : Big
          Codec ID : 129
          Duration : 3mn 18s
          Bit rate mode : Constant
          Bit rate : 384 Kbps
          Channel(s) : 2 channels
          Channel positions : Front: L R
          Sampling rate : 48.0 KHz
          Bit depth : 16 bits
          Compression mode : Lossy
          Stream size : 9.10 MiB (3%)
          Language : English


    Download:
    Hidden Content:
    You must either reply or click 'Like' to see the hidden information contained here.


    Password: sharemania.net


    Capper: VideoMan
     
  2. Loading...


  3. amir

    amir Member

    Joined:
    Nov 30, 2013
    Messages:
    56
    Likes Received:
    3
    THANKS!
     
    sandra likes this.
  4. mg2242

    mg2242 Member

    Joined:
    Nov 30, 2013
    Messages:
    80
    Likes Received:
    0
    THANKS
     
  5. eduardo_spfc

    eduardo_spfc Member

    Joined:
    Nov 23, 2013
    Messages:
    74
    Likes Received:
    16
    thank you
     
  6. xptmxm

    xptmxm Member

    Joined:
    Nov 20, 2013
    Messages:
    283
    Likes Received:
    11
    THANKS
     
  7. jakakecu

    jakakecu Member

    Joined:
    Dec 9, 2013
    Messages:
    125
    Likes Received:
    0
    thankssssssss
     
  8. yabrochico

    yabrochico New Member

    Joined:
    Dec 16, 2013
    Messages:
    6
    Likes Received:
    1
    thanks so much!
     
  9. yabrochico

    yabrochico New Member

    Joined:
    Dec 16, 2013
    Messages:
    6
    Likes Received:
    1
  10. haoxiaozhe

    haoxiaozhe New Member

    Joined:
    Dec 28, 2013
    Messages:
    1
    Likes Received:
    0
  11. brici14

    brici14 Member

    Joined:
    Dec 9, 2013
    Messages:
    177
    Likes Received:
    1
    Thank you
     
  12. swarup dutta

    swarup dutta Member

    Joined:
    Dec 29, 2013
    Messages:
    77
    Likes Received:
    1
  13. adam dark

    adam dark Video Music Lover <3 V . I . P.

    Joined:
    Dec 5, 2013
    Messages:
    2,563
    Likes Received:
    4,354
  14. ericbook

    ericbook Member

    Joined:
    Jan 3, 2014
    Messages:
    202
    Likes Received:
    3
    gracias por este video
     
  15. sandra

    sandra New Member

    Joined:
    Feb 25, 2014
    Messages:
    9
    Likes Received:
    1
  16. znake

    znake Active Member

    Joined:
    Oct 25, 2013
    Messages:
    504
    Likes Received:
    70
    what is palladia version?

    please explain me what is the difference with other Single's ladies videos o_O
     
  17. deleriumdj

    deleriumdj Member

    Joined:
    Mar 20, 2014
    Messages:
    27
    Likes Received:
    0
  18. Ryandeat

    Ryandeat Member

    Joined:
    Mar 31, 2014
    Messages:
    70
    Likes Received:
    1
    Single Ladies
     
  19. Mike Jerry

    Mike Jerry New Member

    Joined:
    Apr 7, 2014
    Messages:
    8
    Likes Received:
    0
  20. lifevirgin

    lifevirgin Active Member

    Joined:
    Feb 15, 2014
    Messages:
    365
    Likes Received:
    31
     
  21. poetyingem

    poetyingem Member

    Joined:
    Apr 8, 2014
    Messages:
    185
    Likes Received:
    3
    thanks <3