Beyonce - Pretty Hurts (Bis.HD.1080i.DD5.1).-Crusha

Discussion in 'BIS HD' started by Crusha, May 26, 2015.

  1. Crusha

    Crusha Well-Known Member Capper

    Joined:
    Oct 15, 2014
    Messages:
    2,350
    Likes Received:
    2,345
    [​IMG]

    General
    ID : 1 (0x1)
    Complete name : Beyonce - Pretty Hurts (Bis.HD.1080i.DD5.1).-Crusha.ts
    Format : MPEG-TS
    File size : 189 MiB
    Duration : 6mn 47s
    Overall bit rate mode : Variable
    Overall bit rate : 3 894 Kbps

    Video
    ID : 2027 (0x7EB)
    Menu ID : 802 (0x322)
    Format : AVC
    Format/Info : Advanced Video Codec
    Format profile : [email protected]
    Format settings, CABAC : Yes
    Format settings, ReFrames : 4 frames
    Codec ID : 27
    Duration : 6mn 47s
    Bit rate : 3 313 Kbps
    Width : 1 920 pixels
    Height : 1 080 pixels
    Display aspect ratio : 16:9
    Frame rate : 29.970 fps
    Standard : Component
    Color space : YUV
    Chroma subsampling : 4:2:0
    Bit depth : 8 bits
    Scan type : MBAFF
    Scan order : Top Field First
    Bits/(Pixel*Frame) : 0.053
    Stream size : 161 MiB (85%)
    Color primaries : BT.709
    Transfer characteristics : BT.709
    Matrix coefficients : BT.709
    Color range : Limited

    Audio
    ID : 3027 (0xBD3)
    Menu ID : 802 (0x322)
    Format : AC-3
    Format/Info : Audio Coding 3
    Mode extension : CM (complete main)
    Format settings, Endianness : Big
    Codec ID : 6
    Duration : 6mn 47s
    Bit rate mode : Constant
    Bit rate : 384 Kbps
    Channel(s) : 6 channels
    Channel positions : Front: L C R, Side: L R, LFE
    Sampling rate : 48.0 KHz
    Bit depth : 16 bits
    Compression mode : Lossy
    Delay relative to video : -66ms
    Stream size : 18.7 MiB (10%)
    Language : English

    Hidden Content:
    You must either reply or click 'Like' to see the hidden information contained here.
    Password: crusha

    Cap by Me :)
     
  2. Loading...

    Similar Threads
    1. Crusha
      Replies:
      3
      Views:
      344

  3. BiiaUckermann

    BiiaUckermann New Member

    Joined:
    Sep 22, 2014
    Messages:
    11
    Likes Received:
    0
    ouuuuuuu *-*
     
  4. PauloBruno

    PauloBruno Member

    Joined:
    Jun 12, 2014
    Messages:
    54
    Likes Received:
    0
     
  5. atakano

    atakano Member

    Joined:
    Oct 6, 2014
    Messages:
    220
    Likes Received:
    3
    thanks for video
     
  6. 江雨燃双鱼

    江雨燃双鱼 Active Member

    Joined:
    Apr 5, 2014
    Messages:
    609
    Likes Received:
    37
    thanks for video
     
  7. Pedro Correia

    Pedro Correia Active Member

    Joined:
    Apr 17, 2014
    Messages:
    827
    Likes Received:
    84
    [​IMG]

    General
    ID : 1 (0x1)
    Complete name : Beyonce - Pretty Hurts (Bis.HD.1080i.DD5.1).-Crusha.ts
    Format : MPEG-TS
    File size : 189 MiB
    Duration : 6mn 47s
    Overall bit rate mode : Variable
    Overall bit rate : 3 894 Kbps

    Video
    ID : 2027 (0x7EB)
    Menu ID : 802 (0x322)
    Format : AVC
    Format/Info : Advanced Video Codec
    Format profile : [email protected]
    Format settings, CABAC : Yes
    Format settings, ReFrames : 4 frames
    Codec ID : 27
    Duration : 6mn 47s
    Bit rate : 3 313 Kbps
    Width : 1 920 pixels
    Height : 1 080 pixels
    Display aspect ratio : 16:9
    Frame rate : 29.970 fps
    Standard : Component
    Color space : YUV
    Chroma subsampling : 4:2:0
    Bit depth : 8 bits
    Scan type : MBAFF
    Scan order : Top Field First
    Bits/(Pixel*Frame) : 0.053
    Stream size : 161 MiB (85%)
    Color primaries : BT.709
    Transfer characteristics : BT.709
    Matrix coefficients : BT.709
    Color range : Limited

    Audio
    ID : 3027 (0xBD3)
    Menu ID : 802 (0x322)
    Format : AC-3
    Format/Info : Audio Coding 3
    Mode extension : CM (complete main)
    Format settings, Endianness : Big
    Codec ID : 6
    Duration : 6mn 47s
    Bit rate mode : Constant
    Bit rate : 384 Kbps
    Channel(s) : 6 channels
    Channel positions : Front: L C R, Side: L R, LFE
    Sampling rate : 48.0 KHz
    Bit depth : 16 bits
    Compression mode : Lossy
    Delay relative to video : -66ms
    Stream size : 18.7 MiB (10%)
    Language : English

    ***Hidden content cannot be quoted.***

    Password: crusha

    Cap by Me :)[/QUOTE]
     
    Leonardo Castelo likes this.
  8. Diego Spears

    Diego Spears Member

    Joined:
    Jan 22, 2017
    Messages:
    101
    Likes Received:
    3
    thank you
     
  9. Leonardo Castelo

    Leonardo Castelo Member

    Joined:
    Jun 12, 2017
    Messages:
    45
    Likes Received:
    3
    [/QUOTE]
    Obrigado