BDRiP Beyonce - Live in Atlantic City 2013 720p MBluRay x264-FKKHD

Discussion in 'BLU-RAY' started by hanshermann, Jul 4, 2017.

  1. jerson9213

    jerson9213 Member

    Joined:
    Aug 30, 2016
    Messages:
    132
    Likes Received:
    14
    gracias!
     
  2. kryza

    kryza Member

    Joined:
    Oct 23, 2013
    Messages:
    664
    Likes Received:
    22
    thank u
     
  3. rayyfentyy

    rayyfentyy Member

    Joined:
    Feb 27, 2018
    Messages:
    99
    Likes Received:
    5
    loihghgybhvcghvghugvh
     
  4. Therch

    Therch Member

    Joined:
    Mar 15, 2018
    Messages:
    92
    Likes Received:
    1
    thanks
     
  5. FlacoChileno

    FlacoChileno Member

    Joined:
    Jan 26, 2015
    Messages:
    593
    Likes Received:
    22
    Thank you :)
     
  6. mariahpam

    mariahpam Member

    Joined:
    Dec 3, 2017
    Messages:
    272
    Likes Received:
    11
    tha
    thanks
     
  7. ellyzeu

    ellyzeu Member

    Joined:
    Oct 1, 2016
    Messages:
    93
    Likes Received:
    4
    obrigado
     
  8. thiiago4lima

    thiiago4lima New Member

    Joined:
    Sep 24, 2016
    Messages:
    26
    Likes Received:
    11
    [​IMG]

    Beyonce - Live in Atlantic City 2013 720p MBluRay x264-FKKHD

    Code:
    General
    Unique ID                   : 227731948861287714145015699318022669697 (0xAB5393F5392EBEA28342FF85D2D90581)
    Complete name               : Beyonce.Live.in.Atlantic.City.2013.720p.MBluRay.x264-FKKHD.mkv
    Format                      : Matroska
    Format version              : Version 2
    File size                   : 3.28 GiB
    Duration                    : 1 h 15 min
    Overall bit rate            : 6 240 kb/s
    Encoded date                : UTC 2013-11-28 07:14:33
    Writing application         : mkvmerge v6.2.0 ('Promised Land') built on Apr 28 2013 12:22:01
    Writing library             : libebml v1.3.0 + libmatroska v1.4.0
    
    Video
    ID                          : 1
    Format                      : AVC
    Format/Info                 : Advanced Video Codec
    Format profile              : High@L4.1
    Format settings, CABAC      : Yes
    Format settings, ReFrames   : 5 frames
    Codec ID                    : V_MPEG4/ISO/AVC
    Duration                    : 1 h 15 min
    Bit rate                    : 4 731 kb/s
    Width                       : 1 280 pixels
    Height                      : 384 pixels
    Display aspect ratio        : 3.333
    Frame rate mode             : Constant
    Frame rate                  : 25.000 FPS
    Color space                 : YUV
    Chroma subsampling          : 4:2:0
    Bit depth                   : 8 bits
    Scan type                   : Progressive
    Bits/(Pixel*Frame)          : 0.385
    Stream size                 : 2.42 GiB (74%)
    Writing library             : x264 core 138 r2358 9e941d1
    
    Language                    : English
    Default                     : Yes
    Forced                      : No
    
    Audio
    ID                          : 2
    Format                      : DTS
    Format/Info                 : Digital Theater Systems
    Mode                        : 16
    Format settings, Endianness : Big
    Codec ID                    : A_DTS
    Duration                    : 1 h 15 min
    Bit rate mode               : Constant
    Bit rate                    : 1 509 kb/s
    Channel(s)                  : 6 channels
    Channel positions           : Front: L C R, Side: L R, LFE
    Sampling rate               : 48.0 kHz
    Frame rate                  : 93.750 FPS (512 spf)
    Bit depth                   : 24 bits
    Compression mode            : Lossy
    Stream size                 : 811 MiB (24%)
    Language                    : English
    Default                     : Yes
    Forced                      : No
     
  9. luccasamora

    luccasamora Member

    Joined:
    May 27, 2017
    Messages:
    30
    Likes Received:
    4
    thankssss
     
  10. maxmax

    maxmax Member

    Joined:
    Jan 11, 2018
    Messages:
    156
    Likes Received:
    3
    thanks
     
  11. Therch

    Therch Member

    Joined:
    Mar 15, 2018
    Messages:
    92
    Likes Received:
    1
    thank you!
     
  12. sergialonzo

    sergialonzo Member

    Joined:
    Jan 16, 2018
    Messages:
    246
    Likes Received:
    4
  13. Thales

    Thales New Member

    Joined:
    Jul 7, 2014
    Messages:
    14
    Likes Received:
    0
    yaasssssss thanks
     
  14. yeonglay

    yeonglay Member

    Joined:
    Jul 1, 2016
    Messages:
    53
    Likes Received:
    2
    Love you Bey
     
  15. peidofeito

    peidofeito Member

    Joined:
    Sep 4, 2016
    Messages:
    155
    Likes Received:
    2
  16. beyreleases

    beyreleases Member

    Joined:
    Jul 7, 2017
    Messages:
    297
    Likes Received:
    7
  17. AlexGreat

    AlexGreat Member

    Joined:
    Apr 29, 2018
    Messages:
    74
    Likes Received:
    1
    Thank you
     
  18. carl4444

    carl4444 New Member

    Joined:
    Apr 26, 2018
    Messages:
    11
    Likes Received:
    0
  19. Syza

    Syza Member

    Joined:
    Apr 6, 2018
    Messages:
    70
    Likes Received:
    3
    THANKS!
     
  20. GorgeousGemini

    GorgeousGemini Member

    Joined:
    Aug 9, 2017
    Messages:
    246
    Likes Received:
    9