BDRiP Beyonce - Live in Atlantic City 2013 720p MBluRay x264-FKKHD

Discussion in 'BLU-RAY' started by hanshermann, Jul 4, 2017.

  1. hanshermann

    hanshermann Well-Known Member Uploader

    Joined:
    Aug 24, 2016
    Messages:
    6,596
    Likes Received:
    10,417
    [​IMG]

    Beyonce - Live in Atlantic City 2013 720p MBluRay x264-FKKHD

    Code:
    General
    Unique ID                   : 227731948861287714145015699318022669697 (0xAB5393F5392EBEA28342FF85D2D90581)
    Complete name               : Beyonce.Live.in.Atlantic.City.2013.720p.MBluRay.x264-FKKHD.mkv
    Format                      : Matroska
    Format version              : Version 2
    File size                   : 3.28 GiB
    Duration                    : 1 h 15 min
    Overall bit rate            : 6 240 kb/s
    Encoded date                : UTC 2013-11-28 07:14:33
    Writing application         : mkvmerge v6.2.0 ('Promised Land') built on Apr 28 2013 12:22:01
    Writing library             : libebml v1.3.0 + libmatroska v1.4.0
    
    Video
    ID                          : 1
    Format                      : AVC
    Format/Info                 : Advanced Video Codec
    Format profile              : High@L4.1
    Format settings, CABAC      : Yes
    Format settings, ReFrames   : 5 frames
    Codec ID                    : V_MPEG4/ISO/AVC
    Duration                    : 1 h 15 min
    Bit rate                    : 4 731 kb/s
    Width                       : 1 280 pixels
    Height                      : 384 pixels
    Display aspect ratio        : 3.333
    Frame rate mode             : Constant
    Frame rate                  : 25.000 FPS
    Color space                 : YUV
    Chroma subsampling          : 4:2:0
    Bit depth                   : 8 bits
    Scan type                   : Progressive
    Bits/(Pixel*Frame)          : 0.385
    Stream size                 : 2.42 GiB (74%)
    Writing library             : x264 core 138 r2358 9e941d1
    
    Language                    : English
    Default                     : Yes
    Forced                      : No
    
    Audio
    ID                          : 2
    Format                      : DTS
    Format/Info                 : Digital Theater Systems
    Mode                        : 16
    Format settings, Endianness : Big
    Codec ID                    : A_DTS
    Duration                    : 1 h 15 min
    Bit rate mode               : Constant
    Bit rate                    : 1 509 kb/s
    Channel(s)                  : 6 channels
    Channel positions           : Front: L C R, Side: L R, LFE
    Sampling rate               : 48.0 kHz
    Frame rate                  : 93.750 FPS (512 spf)
    Bit depth                   : 24 bits
    Compression mode            : Lossy
    Stream size                 : 811 MiB (24%)
    Language                    : English
    Default                     : Yes
    Forced                      : No
    
    Hidden Content:
    You must either reply or click 'Like' to see the hidden information contained here.
     
    Last edited: Jun 29, 2018
  2. Loading...


  3. frostyheaven

    frostyheaven Member

    Joined:
    Jun 17, 2016
    Messages:
    133
    Likes Received:
    5
  4. thisisham

    thisisham Member

    Joined:
    Apr 5, 2017
    Messages:
    34
    Likes Received:
    0
    thx :3
     
  5. panchonavy

    panchonavy Member

    Joined:
    Feb 17, 2017
    Messages:
    94
    Likes Received:
    6
    OMGGGGG
     
  6. kweenbey

    kweenbey Active Member

    Joined:
    Sep 20, 2016
    Messages:
    360
    Likes Received:
    248
    Thanks
     
  7. ImLoser

    ImLoser Well-Known Member

    Joined:
    May 12, 2016
    Messages:
    2,036
    Likes Received:
    90
    thanks
     
  8. dangminh9999

    dangminh9999 Member

    Joined:
    Aug 19, 2014
    Messages:
    146
    Likes Received:
    4
  9. BlankFormatted

    BlankFormatted Member

    Joined:
    Nov 18, 2015
    Messages:
    314
    Likes Received:
    7
    Thank you
     
  10. Rhapsonyx

    Rhapsonyx Active Member

    Joined:
    May 14, 2015
    Messages:
    602
    Likes Received:
    44
    Thank you!! :D :D :D :D :D :D
     
  11. carlos69

    carlos69 Well-Known Member

    Joined:
    Dec 17, 2013
    Messages:
    1,257
    Likes Received:
    92
    Thank you
     
  12. Jack20

    Jack20 Member

    Joined:
    Sep 16, 2016
    Messages:
    273
    Likes Received:
    11
    thanks
     
  13. ductran0924

    ductran0924 New Member

    Joined:
    May 6, 2017
    Messages:
    13
    Likes Received:
    0
    thank you
     
  14. AthiJ

    AthiJ Member

    Joined:
    Oct 30, 2016
    Messages:
    73
    Likes Received:
    2
    Thank You.
     
  15. C_MACMILL

    C_MACMILL Member

    Joined:
    Jul 27, 2017
    Messages:
    298
    Likes Received:
    11
    Thank you
     
  16. Yoncevsfierce69

    Yoncevsfierce69 Member

    Joined:
    Oct 19, 2016
    Messages:
    82
    Likes Received:
    0
    YEAAH goooooo beee
     
  17. Irvin Glenn

    Irvin Glenn Member

    Joined:
    Aug 19, 2014
    Messages:
    74
    Likes Received:
    3
    Thank you so much
     
  18. juliolalaland

    juliolalaland Member

    Joined:
    Dec 25, 2016
    Messages:
    323
    Likes Received:
    17
    Gracias!!!
     
  19. exterminador

    exterminador Well-Known Member

    Joined:
    Jul 3, 2016
    Messages:
    2,328
    Likes Received:
    203
  20. ARTI

    ARTI Yonce

    Joined:
    May 21, 2017
    Messages:
    343
    Likes Received:
    8
    thanks
     
  21. keiizy

    keiizy Member

    Joined:
    Oct 15, 2016
    Messages:
    96
    Likes Received:
    10
    thanks