HDTV Beyonce - Live at Barclays Center 2012-10-06 1080i

Discussion in 'HD Live Performances' started by hanshermann, Oct 23, 2017.

  1. hanshermann

    hanshermann Well-Known Member Uploader

    Joined:
    Aug 24, 2016
    Messages:
    6,483
    Likes Received:
    10,008
    [​IMG]

    Beyonce - Live at Barclays Center 2012-10-06 1080i

    Code:
    General
    ID                          : 1 (0x1)
    Complete name               : Beyonce - Live at Barclays Center 2012-10-06.ts
    Format                      : MPEG-TS
    File size                   : 797 MiB
    Duration                    : 6 min 16 s
    Overall bit rate mode       : Variable
    Overall bit rate            : 17.7 Mb/s
    
    Video
    ID                          : 4113 (0x1011)
    Menu ID                     : 1 (0x1)
    Format                      : MPEG Video
    Format version              : Version 2
    Format profile              : Main@High
    Format settings, BVOP       : Yes
    Format settings, Matrix     : Custom
    Format settings, GOP        : M=3, N=15
    Format settings, picture st : Frame
    Codec ID                    : 2
    Duration                    : 6 min 16 s
    Bit rate mode               : Variable
    Bit rate                    : 16.5 Mb/s
    Maximum bit rate            : 16.9 Mb/s
    Width                       : 1 920 pixels
    Height                      : 1 080 pixels
    Display aspect ratio        : 16:9
    Frame rate                  : 29.970 (30000/1001) FPS
    Color space                 : YUV
    Chroma subsampling          : 4:2:0
    Bit depth                   : 8 bits
    Scan type                   : Interlaced
    Scan order                  : Top Field First
    Compression mode            : Lossy
    Bits/(Pixel*Frame)          : 0.265
    Time code of first frame    : 00:00:00;00
    Time code source            : Group of pictures header
    GOP, Open/Closed            : Open
    GOP, Open/Closed of first f : Closed
    Stream size                 : 740 MiB (93%)
    
    Audio
    ID                          : 4352 (0x1100)
    Menu ID                     : 1 (0x1)
    Format                      : MPEG Audio
    Format version              : Version 1
    Format profile              : Layer 2
    Codec ID                    : 3
    Duration                    : 6 min 16 s
    Bit rate mode               : Constant
    Bit rate                    : 384 kb/s
    Channel(s)                  : 2 channels
    Sampling rate               : 48.0 kHz
    Compression mode            : Lossy
    Stream size                 : 17.2 MiB (2%)
    Language                    : English
    
    
    Hidden Content:
    You must either reply or click 'Like' to see the hidden information contained here.
     
    Last edited: Apr 14, 2018
  2. Loading...


  3. monster

    monster Well-Known Member

    Joined:
    Mar 17, 2016
    Messages:
    462
    Likes Received:
    682
    Thanks!
     
  4. Amauri Luiz

    Amauri Luiz Well-Known Member

    Joined:
    Jan 14, 2014
    Messages:
    1,813
    Likes Received:
    72
    Thank you so much!
     
  5. melina43

    melina43 Member

    Joined:
    Jul 17, 2016
    Messages:
    196
    Likes Received:
    12
    thanks
     
  6. sideshow_bob

    sideshow_bob Well-Known Member

    Joined:
    Dec 20, 2013
    Messages:
    3,209
    Likes Received:
    229
  7. 010juninho

    010juninho Well-Known Member

    Joined:
    Jan 16, 2016
    Messages:
    1,067
    Likes Received:
    44
  8. Pavulon

    Pavulon Well-Known Member Donor

    Joined:
    Mar 22, 2016
    Messages:
    4,476
    Likes Received:
    921
    thanks
     
  9. frostyheaven

    frostyheaven Member

    Joined:
    Jun 17, 2016
    Messages:
    131
    Likes Received:
    5
  10. sunand97

    sunand97 Active Member

    Joined:
    Nov 12, 2016
    Messages:
    312
    Likes Received:
    78
    thanks
     
  11. nino.navy

    nino.navy Well-Known Member

    Joined:
    May 30, 2014
    Messages:
    2,946
    Likes Received:
    176
    thanks a lot
     
  12. cranman

    cranman Member

    Joined:
    Feb 22, 2017
    Messages:
    224
    Likes Received:
    4
    thanks
     
  13. carlos69

    carlos69 Well-Known Member

    Joined:
    Dec 17, 2013
    Messages:
    1,251
    Likes Received:
    92
    Thanks
     
  14. rhea

    rhea Well-Known Member

    Joined:
    Jan 6, 2014
    Messages:
    7,848
    Likes Received:
    1,002
    thanks :)
     
  15. Raphael Herculano

    Raphael Herculano Member

    Joined:
    Sep 11, 2014
    Messages:
    137
    Likes Received:
    4
  16. hungquocphan

    hungquocphan Active Member

    Joined:
    Nov 1, 2013
    Messages:
    724
    Likes Received:
    36
  17. C_MACMILL

    C_MACMILL Member

    Joined:
    Jul 27, 2017
    Messages:
    285
    Likes Received:
    10
    Thanks
     
  18. Rhapsonyx

    Rhapsonyx Active Member

    Joined:
    May 14, 2015
    Messages:
    598
    Likes Received:
    39
    Thank you!!!
     
  19. IWNLYD

    IWNLYD Member

    Joined:
    Feb 28, 2017
    Messages:
    235
    Likes Received:
    3
    thanks
     
  20. qweeenbey

    qweeenbey Member

    Joined:
    Sep 30, 2017
    Messages:
    398
    Likes Received:
    17
    thank you
     
  21. ovat

    ovat New Member

    Joined:
    Jul 12, 2016
    Messages:
    24
    Likes Received:
    1
    Thanks.