SDTV Beyonce & Kelly Rowland - Get Me Bodied & Like This Feat. Eve - (BET Awards 26.01.2007)

Discussion in 'SD Live Performances' started by hanshermann, Apr 9, 2018.

  1. hanshermann

    hanshermann Well-Known Member Uploader

    Joined:
    Aug 24, 2016
    Messages:
    7,020
    Likes Received:
    11,694
    [​IMG]
    Beyonce & Kelly Rowland - Get Me Bodied & Like This Feat. Eve - (BET Awards 26.01.2007)

    General
    Complete name : 29.Get_Me_Bodied_&_Kelly_Feat._Eve_-_Like_This_(BET_Awards_26.01.2007).avi
    Format : AVI
    Format/Info : Audio Video Interleave
    File size : 163 MiB
    Duration : 7 min 45 s
    Overall bit rate : 2 946 kb/s

    Video
    ID : 0
    Format : MPEG-4 Visual
    Format profile : Advanced Simple@L5
    Format settings, BVOP : 2
    Format settings, QPel : No
    Format settings, GMC : No warppoints
    Format settings, Matrix : Default (H.263)
    Muxing mode : Packed bitstream
    Codec ID : XVID
    Codec ID/Hint : XviD
    Duration : 7 min 45 s
    Bit rate : 2 806 kb/s
    Width : 720 pixels
    Height : 536 pixels
    Display aspect ratio : 4:3
    Frame rate : 29.970 (30000/1001) FPS
    Color space : YUV
    Chroma subsampling : 4:2:0
    Bit depth : 8 bits
    Scan type : Progressive
    Compression mode : Lossy
    Bits/(Pixel*Frame) : 0.243
    Stream size : 156 MiB (95%)
    Writing library : XviD 1.0.1 (UTC 2004-06-05)

    Audio
    ID : 1
    Format : MPEG Audio
    Format version : Version 1
    Format profile : Layer 3
    Codec ID : 55
    Codec ID/Hint : MP3
    Duration : 7 min 45 s
    Source duration : 7 min 45 s
    Bit rate mode : Constant
    Bit rate : 128 kb/s
    Channel(s) : 2 channels
    Sampling rate : 44.1 kHz
    Compression mode : Lossy
    Stream size : 7.10 MiB (4%)
    Alignment : Split accross interleaves
    Interleave, duration : 33 ms (1.00 video frame)

    Hidden Content:
    You must either reply or click 'Like' to see the hidden information contained here.
     
    Last edited: Apr 13, 2018
  2. Loading...


  3. sunand97

    sunand97 Active Member

    Joined:
    Nov 12, 2016
    Messages:
    349
    Likes Received:
    86
    Thanks
     
  4. brian182

    brian182 Well-Known Member

    Joined:
    Oct 14, 2013
    Messages:
    2,149
    Likes Received:
    123
    thankss
     
  5. BetaKsi

    BetaKsi Well-Known Member

    Joined:
    Oct 18, 2015
    Messages:
    2,116
    Likes Received:
    571
    Thank you))
     
  6. jeffersonayu

    jeffersonayu Member

    Joined:
    Jan 12, 2016
    Messages:
    108
    Likes Received:
    2
  7. C_MACMILL

    C_MACMILL Member

    Joined:
    Jul 27, 2017
    Messages:
    308
    Likes Received:
    12
    T
    hanks
     
  8. Rihfiles

    Rihfiles ♫ because it feels good from head to toe ♫

    Joined:
    Feb 13, 2018
    Messages:
    357
    Likes Received:
    8
    thank you !
     
  9. Saint

    Saint WHY HELLO WORLD?

    Joined:
    Sep 22, 2014
    Messages:
    1,192
    Likes Received:
    130
    Thanks
     
  10. maxmax

    maxmax Member

    Joined:
    Jan 11, 2018
    Messages:
    158
    Likes Received:
    3
    t
    thank you
     
  11. itzjakebitch

    itzjakebitch Member

    Joined:
    Jan 25, 2017
    Messages:
    225
    Likes Received:
    3
  12. corpusm2

    corpusm2 Member

    Joined:
    Jun 21, 2017
    Messages:
    130
    Likes Received:
    3
    thank you
     
  13. mcslimshady

    mcslimshady Well-Known Member

    Joined:
    Jun 20, 2016
    Messages:
    1,941
    Likes Received:
    49
    thanks man
     
  14. multimediafm

    multimediafm Well-Known Member Donor

    Joined:
    Mar 27, 2014
    Messages:
    13,292
    Likes Received:
    1,057
  15. JUNINHOSZ

    JUNINHOSZ Well-Known Member

    Joined:
    May 23, 2014
    Messages:
    1,981
    Likes Received:
    58
    thanks a lot
     
  16. Amauri Luiz

    Amauri Luiz Well-Known Member

    Joined:
    Jan 14, 2014
    Messages:
    1,971
    Likes Received:
    80
    Thank you
     
  17. toonbbv

    toonbbv Well-Known Member

    Joined:
    Dec 11, 2013
    Messages:
    2,251
    Likes Received:
    106
    thank you
     
  18. gbrielm

    gbrielm Member

    Joined:
    May 3, 2014
    Messages:
    102
    Likes Received:
    5
    thank you
     
  19. Clepsodra

    Clepsodra Active Member

    Joined:
    Jan 15, 2017
    Messages:
    846
    Likes Received:
    160
    [​IMG]
    Beyonce & Kelly Rowland - Get Me Bodied & Like This Feat. Eve - (BET Awards 26.01.2007)


    Hidden Content:
    You must either reply or click 'Like' to see the hidden information contained here.
     
    Dimpyonce and fathungryflop like this.
  20. yoncequality

    yoncequality Member

    Joined:
    Jan 8, 2018
    Messages:
    208
    Likes Received:
    5
    thanks
     
  21. luismolinanyc

    luismolinanyc Active Member

    Joined:
    May 17, 2016
    Messages:
    962
    Likes Received:
    35