BDRiP Beyonce - I Am...World Tour 2010 1080p BluRay DTS x264-CtrlHD by CClassicHD NET

Discussion in 'BLU-RAY' started by hanshermann, Jul 1, 2017.

  1. hanshermann

    hanshermann Well-Known Member Uploader

    Joined:
    Aug 24, 2016
    Messages:
    6,596
    Likes Received:
    10,417
    [​IMG]

    Beyonce - I Am...World Tour 2010 1080p BluRay DTS x264-CtrlHD by CClassicHD NET

    Code:
    General
    Unique ID                   : 199717723480768577608474335511127335968 (0x96403C0223B659BA9CBF8B6571392420)
    Complete name               : Beyonce.I.Am...World.Tour.2010.1080p.BluRay.DTS.x264-CtrlHD.by.CClassicHD.NET.mkv
    Format                      : Matroska
    Format version              : Version 2
    File size                   : 14.8 GiB
    Duration                    : 1 h 39 min
    Overall bit rate            : 21.4 Mb/s
    Encoded date                : UTC 2010-12-13 09:12:10
    Writing application         : mkvmerge v4.4.0 ('Die Wiederkehr') built on Oct 31 2010 21:52:48
    Writing library             : libebml v1.0.0 + libmatroska v1.0.0
    
    Video
    ID                          : 1
    Format                      : AVC
    Format/Info                 : Advanced Video Codec
    Format profile              : High@L4.1
    Format settings, CABAC      : Yes
    Format settings, ReFrames   : 4 frames
    Codec ID                    : V_MPEG4/ISO/AVC
    Duration                    : 1 h 39 min
    Nominal bit rate            : 18.5 Mb/s
    Width                       : 1 920 pixels
    Height                      : 1 080 pixels
    Display aspect ratio        : 16:9
    Frame rate mode             : Constant
    Frame rate                  : 23.976 (24000/1001) FPS
    Color space                 : YUV
    Chroma subsampling          : 4:2:0
    Bit depth                   : 8 bits
    Scan type                   : Progressive
    Bits/(Pixel*Frame)          : 0.372
    Title                       : 18500 kbps
    Writing library             : x264 core 110 r1804 e89c4cf
    
    Language                    : English
    Default                     : Yes
    Forced                      : No
    
    Audio #1
    ID                          : 2
    Format                      : DTS
    Format/Info                 : Digital Theater Systems
    Mode                        : 16
    Format settings, Endianness : Big
    Codec ID                    : A_DTS
    Duration                    : 1 h 39 min
    Bit rate mode               : Constant
    Bit rate                    : 1 510 kb/s
    Channel(s)                  : 2 channels
    Channel positions           : Front: L R
    Sampling rate               : 48.0 kHz
    Frame rate                  : 93.750 FPS (512 spf)
    Bit depth                   : 24 bits
    Compression mode            : Lossy
    Stream size                 : 1.04 GiB (7%)
    Title                       : DTS from LPCM
    Language                    : English
    Default                     : Yes
    Forced                      : No
    
    Audio #2
    ID                          : 3
    Format                      : AC-3
    Format/Info                 : Audio Coding 3
    Format settings, Endianness : Big
    Codec ID                    : A_AC3
    Duration                    : 1 h 39 min
    Bit rate mode               : Constant
    Bit rate                    : 640 kb/s
    Channel(s)                  : 6 channels
    Channel positions           : Front: L C R, Side: L R, LFE
    Sampling rate               : 48.0 kHz
    Frame rate                  : 31.250 FPS (1536 spf)
    Bit depth                   : 16 bits
    Compression mode            : Lossy
    Stream size                 : 453 MiB (3%)
    Title                       : Offical DD5.1
    Language                    : English
    Service kind                : Complete Main
    Default                     : No
    Forced                      : No
    
    Audio #3
    ID                          : 4
    Format                      : AAC
    Format/Info                 : Advanced Audio Codec
    Format profile              : LC
    Codec ID                    : A_AAC
    Duration                    : 1 h 39 min
    Channel(s)                  : 6 channels
    Channel positions           : Front: L C R, Side: L R, LFE
    Sampling rate               : 48.0 kHz
    Frame rate                  : 46.875 FPS (1024 spf)
    Compression mode            : Lossy
    Title                       : AAC2.0
    Language                    : English
    Default                     : No
    Forced                      : No
    
    Text
    ID                          : 5
    Format                      : PGS
    Muxing mode                 : zlib
    Codec ID                    : S_HDMV/PGS
    Codec ID/Info               : Picture based subtitle format used on BDs/HD-DVDs
    Title                       : English Sup
    Language                    : English
    Default                     : Yes
    Forced                      : No
    
    Hidden Content:
    You must either reply or click 'Like' to see the hidden information contained here.
     
    Last edited: Jun 29, 2018
  2. Loading...


  3. Heictor Chad

    Heictor Chad New Member

    Joined:
    Jul 1, 2017
    Messages:
    5
    Likes Received:
    0
  4. miyara

    miyara My reputation died in this forum V . I . P. Uploader

    Joined:
    Feb 21, 2016
    Messages:
    1,034
    Likes Received:
    3,664
    Thank you for Bey, X.
     
  5. marco25

    marco25 Well-Known Member

    Joined:
    Oct 5, 2016
    Messages:
    1,443
    Likes Received:
    566
    Thanks
     
  6. juliolalaland

    juliolalaland Member

    Joined:
    Dec 25, 2016
    Messages:
    323
    Likes Received:
    17
    gracias!!
     
  7. yhnujm1

    yhnujm1 Member

    Joined:
    Jun 26, 2014
    Messages:
    393
    Likes Received:
    6
    thank you
     
  8. shopangle20

    shopangle20 Member

    Joined:
    Sep 30, 2015
    Messages:
    216
    Likes Received:
    11
    thxxxxx
     
  9. Grizzly3101

    Grizzly3101 Member

    Joined:
    Nov 30, 2016
    Messages:
    170
    Likes Received:
    19
    thanks
     
  10. lim

    lim Well-Known Member

    Joined:
    Nov 8, 2013
    Messages:
    2,032
    Likes Received:
    76
    thanks
     
  11. buionightlife

    buionightlife Member

    Joined:
    Dec 4, 2016
    Messages:
    40
    Likes Received:
    5
    Thanks
     
  12. dangminh9999

    dangminh9999 Member

    Joined:
    Aug 19, 2014
    Messages:
    146
    Likes Received:
    4
    thank you
     
  13. tsimien

    tsimien Member

    Joined:
    Dec 22, 2015
    Messages:
    48
    Likes Received:
    0
    thanks!
     
  14. frostyheaven

    frostyheaven Member

    Joined:
    Jun 17, 2016
    Messages:
    133
    Likes Received:
    5
  15. Rhapsonyx

    Rhapsonyx Active Member

    Joined:
    May 14, 2015
    Messages:
    602
    Likes Received:
    44
    Thank you so much!!!! :D :D :D :D
     
  16. kweenbey

    kweenbey Active Member

    Joined:
    Sep 20, 2016
    Messages:
    360
    Likes Received:
    248
    Thank you.
     
  17. ImLoser

    ImLoser Well-Known Member

    Joined:
    May 12, 2016
    Messages:
    2,036
    Likes Received:
    90
    thanks
     
  18. beyoncefan666

    beyoncefan666 New Member

    Joined:
    Apr 25, 2017
    Messages:
    25
    Likes Received:
    0
    yaaaaaaaaaaaaaaaaas
     
  19. andersom.bk

    andersom.bk Member

    Joined:
    Jul 11, 2014
    Messages:
    217
    Likes Received:
    7
    thanks for this
     
  20. gaelloko

    gaelloko Active Member

    Joined:
    Sep 27, 2014
    Messages:
    204
    Likes Received:
    63
    yaaaaaas queen b[​IMG]
    Beyonce - I Am...World Tour 2010 1080p BluRay DTS x264-CtrlHD by CClassicHD NET
    Code:
    General
    Unique ID                   : 199717723480768577608474335511127335968 (0x96403C0223B659BA9CBF8B6571392420)
    Complete name               : Beyonce.I.Am...World.Tour.2010.1080p.BluRay.DTS.x264-CtrlHD.by.CClassicHD.NET.mkv
    Format                      : Matroska
    Format version              : Version 2
    File size                   : 14.8 GiB
    Duration                    : 1 h 39 min
    Overall bit rate            : 21.4 Mb/s
    Encoded date                : UTC 2010-12-13 09:12:10
    Writing application         : mkvmerge v4.4.0 ('Die Wiederkehr') built on Oct 31 2010 21:52:48
    Writing library             : libebml v1.0.0 + libmatroska v1.0.0
    
    Video
    ID                          : 1
    Format                      : AVC
    Format/Info                 : Advanced Video Codec
    Format profile              : High@L4.1
    Format settings, CABAC      : Yes
    Format settings, ReFrames   : 4 frames
    Codec ID                    : V_MPEG4/ISO/AVC
    Duration                    : 1 h 39 min
    Nominal bit rate            : 18.5 Mb/s
    Width                       : 1 920 pixels
    Height                      : 1 080 pixels
    Display aspect ratio        : 16:9
    Frame rate mode             : Constant
    Frame rate                  : 23.976 (24000/1001) FPS
    Color space                 : YUV
    Chroma subsampling          : 4:2:0
    Bit depth                   : 8 bits
    Scan type                   : Progressive
    Bits/(Pixel*Frame)          : 0.372
    Title                       : 18500 kbps
    Writing library             : x264 core 110 r1804 e89c4cf
    
    Language                    : English
    Default                     : Yes
    Forced                      : No
    
    Audio #1
    ID                          : 2
    Format                      : DTS
    Format/Info                 : Digital Theater Systems
    Mode                        : 16
    Format settings, Endianness : Big
    Codec ID                    : A_DTS
    Duration                    : 1 h 39 min
    Bit rate mode               : Constant
    Bit rate                    : 1 510 kb/s
    Channel(s)                  : 2 channels
    Channel positions           : Front: L R
    Sampling rate               : 48.0 kHz
    Frame rate                  : 93.750 FPS (512 spf)
    Bit depth                   : 24 bits
    Compression mode            : Lossy
    Stream size                 : 1.04 GiB (7%)
    Title                       : DTS from LPCM
    Language                    : English
    Default                     : Yes
    Forced                      : No
    
    Audio #2
    ID                          : 3
    Format                      : AC-3
    Format/Info                 : Audio Coding 3
    Format settings, Endianness : Big
    Codec ID                    : A_AC3
    Duration                    : 1 h 39 min
    Bit rate mode               : Constant
    Bit rate                    : 640 kb/s
    Channel(s)                  : 6 channels
    Channel positions           : Front: L C R, Side: L R, LFE
    Sampling rate               : 48.0 kHz
    Frame rate                  : 31.250 FPS (1536 spf)
    Bit depth                   : 16 bits
    Compression mode            : Lossy
    Stream size                 : 453 MiB (3%)
    Title                       : Offical DD5.1
    Language                    : English
    Service kind                : Complete Main
    Default                     : No
    Forced                      : No
    
    Audio #3
    ID                          : 4
    Format                      : AAC
    Format/Info                 : Advanced Audio Codec
    Format profile              : LC
    Codec ID                    : A_AAC
    Duration                    : 1 h 39 min
    Channel(s)                  : 6 channels
    Channel positions           : Front: L C R, Side: L R, LFE
    Sampling rate               : 48.0 kHz
    Frame rate                  : 46.875 FPS (1024 spf)
    Compression mode            : Lossy
    Title                       : AAC2.0
    Language                    : English
    Default                     : No
    Forced                      : No
    
    Text
    ID                          : 5
    Format                      : PGS
    Muxing mode                 : zlib
    Codec ID                    : S_HDMV/PGS
    Codec ID/Info               : Picture based subtitle format used on BDs/HD-DVDs
    Title                       : English Sup
    Language                    : English
    Default                     : Yes
    Forced                      : No
    
    ***Hidden content cannot be quoted.***[/QUOTE]
     
  21. carlos69

    carlos69 Well-Known Member

    Joined:
    Dec 17, 2013
    Messages:
    1,257
    Likes Received:
    92
    Like+reply is the most annoying thing