Beyonce feat. Jay-Z - Drunk in Love (WEB-AAC-1080p)

Discussion in 'SD Live Performances' started by rgf72k, Dec 20, 2013.

  1. rgf72k

    rgf72k Founder Staff Member AdMiN Capper Uploader

    Joined:
    Oct 1, 2013
    Messages:
    1,073
    Likes Received:
    16,181
    [​IMG]

    Code:
    General
    Complete name                            : Beyonce ft Jay-Z - Drunk in Love.mp4
    Format                                  : MPEG-4
    Format profile                          : Base Media
    Codec ID                                : isom
    File size                                : 241 MiB
    Duration                                : 6mn 21s
    Overall bit rate mode                    : Variable
    Overall bit rate                        : 5 293 Kbps
    Writing application                      : Lavf52.54.0
    
    Video
    ID                                      : 1
    Format                                  : AVC
    Format/Info                              : Advanced Video Codec
    Format profile                          : [email protected]
    Format settings, CABAC                  : Yes
    Format settings, ReFrames                : 4 frames
    Codec ID                                : avc1
    Codec ID/Info                            : Advanced Video Coding
    Duration                                : 6mn 21s
    Bit rate                                : 5 200 Kbps
    Width                                    : 1 920 pixels
    Height                                  : 1 072 pixels
    Display aspect ratio                    : 16:9
    Frame rate mode                          : Variable
    Frame rate                              : 23.976 fps
    Color space                              : YUV
    Chroma subsampling                      : 4:2:0
    Bit depth                                : 8 bits
    Scan type                                : Progressive
    Bits/(Pixel*Frame)                      : 0.105
    Stream size                              : 232 MiB (96%)
    Writing library                          : x264 core 112
    Encoding settings                        : cabac=1 / ref=4 / deblock=1:0:0 / analyse=0x3:0x113 / me=umh / subme=7 / psy=1 / psy_rd=1.00:0.00 / mixed_ref=1 / me_range=64 / chroma_me=1 / trellis=1 / 8x8dct=1 / cqm=0 / deadzone=21,11 / fast_pskip=1 / chroma_qp_offset=-2 / threads=3 / sliced_threads=0 / nr=0 / decimate=1 / interlaced=0 / constrained_intra=0 / bframes=2 / b_pyramid=2 / b_adapt=1 / b_bias=0 / direct=1 / weightb=1 / open_gop=0 / weightp=2 / keyint=72 / keyint_min=37 / scenecut=40 / intra_refresh=0 / rc_lookahead=40 / rc=2pass / mbtree=1 / bitrate=5200 / ratetol=1.0 / qcomp=0.60 / qpmin=3 / qpmax=51 / qpstep=4 / cplxblur=20.0 / qblur=0.5 / vbv_maxrate=5200 / vbv_bufsize=5200 / ip_ratio=1.40 / aq=1:1.00 / nal_hrd=none
    Color primaries                          : BT.709
    Transfer characteristics                : BT.709
    Matrix coefficients                      : BT.709
    
    Audio
    ID                                      : 2
    Format                                  : AAC
    Format/Info                              : Advanced Audio Codec
    Format profile                          : LC
    Codec ID                                : 40
    Duration                                : 6mn 21s
    Bit rate mode                            : Variable
    Bit rate                                : 192 Kbps
    Channel(s)                              : 2 channels
    Channel positions                        : Front: L R
    Sampling rate                            : 48.0 KHz
    Compression mode                        : Lossy
    Stream size                              : 8.73 MiB (4%)
    Language                                : English
    


    Download:
    Hidden Content:
    You must either reply or click 'Like' to see the hidden information contained here.
     
    cacgv, lim, hanshermann and 6 others like this.
  2. Loading...


  3. toonbbv

    toonbbv Well-Known Member

    Joined:
    Dec 11, 2013
    Messages:
    1,524
    Likes Received:
    73
    thsan you
     
  4. withcap

    withcap Well-Known Member

    Joined:
    Oct 29, 2013
    Messages:
    1,805
    Likes Received:
    113
    Thanks!
     
  5. Alexander

    Alexander Member

    Joined:
    Apr 7, 2014
    Messages:
    94
    Likes Received:
    7
     
  6. SaharArr

    SaharArr New Member

    Joined:
    Jul 16, 2015
    Messages:
    17
    Likes Received:
    0
  7. qwert11

    qwert11 Active Member

    Joined:
    Nov 23, 2014
    Messages:
    1,063
    Likes Received:
    15
    thanks
     
  8. hanshermann

    hanshermann Well-Known Member Uploader

    Joined:
    Aug 24, 2016
    Messages:
    5,025
    Likes Received:
    3,780
    wahts taht