SDTV Beyonce - Deja Vu - Music Fair 2006

Discussion in 'SD Live Performances' started by hanshermann, Oct 6, 2017.

  1. hanshermann

    hanshermann Well-Known Member Uploader

    Joined:
    Aug 24, 2016
    Messages:
    7,597
    Likes Received:
    14,915
    [​IMG]

    Beyonce - Deja Vu - Music Fair 2006

    General
    Complete name : Beyonc__-_Deja_Vu___Music_Fair_2006_-_.mpeg
    Format : MPEG-PS
    File size : 123 MiB
    Duration : 2 min 40 s
    Overall bit rate mode : Variable
    Overall bit rate : 6 409 kb/s

    Video
    ID : 224 (0xE0)
    Format : MPEG Video
    Format version : Version 2
    Format profile : Main@Main
    Format settings, BVOP : Yes
    Format settings, Matrix : Default
    Format settings, GOP : M=3, N=5
    Format settings, picture st : Frame
    Duration : 2 min 40 s
    Bit rate mode : Variable
    Bit rate : 6 057 kb/s
    Maximum bit rate : 8 200 kb/s
    Width : 704 pixels
    Height : 480 pixels
    Display aspect ratio : 4:3
    Frame rate : 29.970 (30000/1001) FPS
    Standard : NTSC
    Color space : YUV
    Chroma subsampling : 4:2:0
    Bit depth : 8 bits
    Scan type : Interlaced
    Scan order : Top Field First
    Compression mode : Lossy
    Bits/(Pixel*Frame) : 0.598
    Time code of first frame : 00:00:00:00
    Time code source : Group of pictures header
    GOP, Open/Closed : Closed
    Stream size : 116 MiB (95%)

    Audio
    ID : 192 (0xC0)
    Format : MPEG Audio
    Format version : Version 1
    Format profile : Layer 2
    Duration : 2 min 40 s
    Bit rate mode : Constant
    Bit rate : 224 kb/s
    Channel(s) : 2 channels
    Sampling rate : 48.0 kHz
    Compression mode : Lossy
    Delay relative to video : 20 ms
    Stream size : 4.30 MiB (3%)

    Hidden Content:
    You must either reply or click 'Like' to see the hidden information contained here.
     
    Last edited: Apr 14, 2018
  2. Loading...


  3. xiao_yu_1019

    xiao_yu_1019 Active Member

    Joined:
    Jan 1, 2015
    Messages:
    565
    Likes Received:
    41
    thx a lot
     
  4. Saint

    Saint WHY HELLO WORLD?

    Joined:
    Sep 22, 2014
    Messages:
    1,235
    Likes Received:
    137
    Thank youuu
     
  5. Danny82

    Danny82 Well-Known Member

    Joined:
    May 28, 2016
    Messages:
    2,596
    Likes Received:
    836
    Thank you so much for sharing!!!
     
  6. TrendMusic

    TrendMusic Well-Known Member

    Joined:
    Oct 7, 2013
    Messages:
    1,880
    Likes Received:
    179
  7. 010juninho

    010juninho Well-Known Member

    Joined:
    Jan 16, 2016
    Messages:
    1,210
    Likes Received:
    56
    Obrigado
     
  8. eldomi13

    eldomi13 Member

    Joined:
    Jun 26, 2017
    Messages:
    244
    Likes Received:
    22
    Yaas queen B, tnaks
     
  9. BetaKsi

    BetaKsi Well-Known Member

    Joined:
    Oct 18, 2015
    Messages:
    2,477
    Likes Received:
    626
    Thank you))
     
  10. sunand97

    sunand97 Active Member

    Joined:
    Nov 12, 2016
    Messages:
    363
    Likes Received:
    100
    thanks
     
  11. Maura

    Maura Well-Known Member

    Joined:
    Apr 7, 2014
    Messages:
    3,347
    Likes Received:
    109
    thanks
     
  12. princebasil

    princebasil Active Member

    Joined:
    Jul 4, 2017
    Messages:
    673
    Likes Received:
    61
    Thank you!
     
  13. multimediafm

    multimediafm Well-Known Member Donor

    Joined:
    Mar 27, 2014
    Messages:
    14,124
    Likes Received:
    1,112
  14. BlankFormatted

    BlankFormatted Member

    Joined:
    Nov 18, 2015
    Messages:
    320
    Likes Received:
    7
  15. JUNINHOSZ

    JUNINHOSZ Well-Known Member

    Joined:
    May 23, 2014
    Messages:
    2,331
    Likes Received:
    63
    graciaaas
     
  16. sylvieyunjae

    sylvieyunjae Active Member

    Joined:
    Feb 29, 2016
    Messages:
    909
    Likes Received:
    54
  17. beyreleases

    beyreleases Member

    Joined:
    Jul 7, 2017
    Messages:
    352
    Likes Received:
    9
    t
    hankss
     
  18. toonbbv

    toonbbv Well-Known Member

    Joined:
    Dec 11, 2013
    Messages:
    2,323
    Likes Received:
    110
    thank you
     
  19. Mat123

    Mat123 Member

    Joined:
    Jan 9, 2018
    Messages:
    780
    Likes Received:
    15
    thanks
     
  20. Rihfiles

    Rihfiles ♫ because it feels good from head to toe ♫

    Joined:
    Feb 13, 2018
    Messages:
    366
    Likes Received:
    8
    thanx u
     
  21. dinhotwain

    dinhotwain Well-Known Member

    Joined:
    Jan 1, 2015
    Messages:
    1,539
    Likes Received:
    157