SDTV Beyonce - Crazy In Love (Live Rocking The Corps)

Discussion in 'SD Live Performances' started by hanshermann, Oct 6, 2017.

  1. hanshermann

    hanshermann Well-Known Member Uploader

    Joined:
    Aug 24, 2016
    Messages:
    6,951
    Likes Received:
    11,219
    [​IMG]

    Beyonce - Crazy In Love (Live Rocking The Corps)

    General
    Complete name : Beyonce - Crazy In Love (Live Rocking The Corps) hdtv .vob
    Format : MPEG-PS
    File size : 107 MiB
    Duration : 3 min 33 s
    Overall bit rate mode : Variable
    Overall bit rate : 4 204 kb/s

    Video
    ID : 224 (0xE0)
    Format : MPEG Video
    Format version : Version 2
    Format profile : Main@Main
    Format settings, BVOP : Yes
    Format settings, Matrix : Custom
    Format settings, GOP : Variable
    Duration : 3 min 33 s
    Bit rate mode : Variable
    Bit rate : 3 736 kb/s
    Maximum bit rate : 6 000 kb/s
    Width : 720 pixels
    Height : 480 pixels
    Display aspect ratio : 16:9
    Frame rate : 29.970 (30000/1001) FPS
    Standard : NTSC
    Color space : YUV
    Chroma subsampling : 4:2:0
    Bit depth : 8 bits
    Scan type : Progressive
    Compression mode : Lossy
    Bits/(Pixel*Frame) : 0.361
    Time code of first frame : 01:39:01:15
    Time code source : Group of pictures header
    GOP, Open/Closed : Closed
    Stream size : 95.0 MiB (89%)
    Color primaries : BT.601 NTSC
    Transfer characteristics : BT.601
    Matrix coefficients : BT.601

    Audio
    ID : 189 (0xBD)-128 (0x80)
    Format : AC-3
    Format/Info : Audio Coding 3
    Format settings, Endianness : Big
    Muxing mode : DVD-Video
    Duration : 3 min 33 s
    Bit rate mode : Constant
    Bit rate : 384 kb/s
    Channel(s) : 6 channels
    Channel positions : Front: L C R, Side: L R, LFE
    Sampling rate : 48.0 kHz
    Frame rate : 31.250 FPS (1536 spf)
    Bit depth : 16 bits
    Compression mode : Lossy
    Delay relative to video : -146 ms
    Stream size : 9.77 MiB (9%)
    Service kind : Complete Main

    Hidden Content:
    You must either reply or click 'Like' to see the hidden information contained here.
     
    Last edited: Apr 14, 2018
  2. Loading...


  3. multimediafm

    multimediafm Well-Known Member Donor

    Joined:
    Mar 27, 2014
    Messages:
    13,143
    Likes Received:
    1,045
  4. Saint

    Saint WHY HELLO WORLD?

    Joined:
    Sep 22, 2014
    Messages:
    1,179
    Likes Received:
    129
    Thanks
     
  5. Danny82

    Danny82 Well-Known Member

    Joined:
    May 28, 2016
    Messages:
    2,420
    Likes Received:
    674
    Thank you so much!!!
     
  6. sunand97

    sunand97 Active Member

    Joined:
    Nov 12, 2016
    Messages:
    346
    Likes Received:
    80
    thanks
     
  7. Maura

    Maura Well-Known Member

    Joined:
    Apr 7, 2014
    Messages:
    3,141
    Likes Received:
    101
    thanks
     
  8. paul1243

    paul1243 Member

    Joined:
    May 10, 2017
    Messages:
    55
    Likes Received:
    2
    Thanks!
     
  9. kyros

    kyros Member

    Joined:
    Oct 21, 2015
    Messages:
    571
    Likes Received:
    22
    thanks
     
  10. cdh928

    cdh928 Member

    Joined:
    Oct 7, 2013
    Messages:
    141
    Likes Received:
    13
    thanks
     
  11. nickgoldsmit

    nickgoldsmit B-Army

    Joined:
    May 3, 2016
    Messages:
    153
    Likes Received:
    9
  12. mcslimshady

    mcslimshady Well-Known Member

    Joined:
    Jun 20, 2016
    Messages:
    1,904
    Likes Received:
    49
  13. toonbbv

    toonbbv Well-Known Member

    Joined:
    Dec 11, 2013
    Messages:
    2,205
    Likes Received:
    105
    thank you
     
  14. Mat123

    Mat123 Member

    Joined:
    Jan 9, 2018
    Messages:
    662
    Likes Received:
    13
    thanks
     
  15. maxmax

    maxmax Member

    Joined:
    Jan 11, 2018
    Messages:
    156
    Likes Received:
    3
    thnxxxxxx
     
  16. ellyzeu

    ellyzeu Member

    Joined:
    Oct 1, 2016
    Messages:
    92
    Likes Received:
    4
    obrigado
     
  17. C_MACMILL

    C_MACMILL Member

    Joined:
    Jul 27, 2017
    Messages:
    303
    Likes Received:
    11
    Thanks
     
  18. putatzo

    putatzo Member

    Joined:
    Sep 6, 2016
    Messages:
    108
    Likes Received:
    3
    thank u so much :D
     
  19. aaliyah2009

    aaliyah2009 Well-Known Member

    Joined:
    Feb 2, 2017
    Messages:
    1,215
    Likes Received:
    31
  20. dinhotwain

    dinhotwain Well-Known Member

    Joined:
    Jan 1, 2015
    Messages:
    1,170
    Likes Received:
    127
  21. RE4PER

    RE4PER Member

    Joined:
    Dec 23, 2016
    Messages:
    240
    Likes Received:
    5
    Thanks