SDTV Beyonce - Crazy In Love (Live At T4 Popworld)

Discussion in 'SD Live Performances' started by Pavulon, Dec 27, 2017.

  1. Pavulon

    Pavulon Well-Known Member Donor

    Joined:
    Mar 22, 2016
    Messages:
    4,735
    Likes Received:
    1,142
    Beyonce - Crazy In Love (Live At T4 Popworld)



    Format : MPEG-PS
    File size : 128 MiB
    Duration : 3 min 22 s
    Overall bit rate mode : Variable
    Overall bit rate : 5 280 kb/s
    Writing library : encoded by TMPGEnc (ver. 2.59.47.155)

    Video
    ID : 224 (0xE0)
    Format : MPEG Video
    Format version : Version 2
    Format profile : Main@Main
    Format settings : CustomMatrix / BVOP
    Format settings, BVOP : Yes
    Format settings, Matrix : Custom
    Format settings, GOP : Variable
    Duration : 3 min 22 s
    Bit rate mode : Variable
    Bit rate : 4 951 kb/s
    Maximum bit rate : 9 800 kb/s
    Width : 480 pixels
    Height : 576 pixels
    Display aspect ratio : 4:3
    Frame rate : 25.000 FPS
    Standard : PAL
    Color space : YUV
    Chroma subsampling : 4:2:0
    Bit depth : 8 bits
    Scan type : Progressive
    Compression mode : Lossy
    Bits/(Pixel*Frame) : 0.716
    Time code of first frame : 00:00:00:00
    Time code source : Group of pictures header
    Stream size : 120 MiB (94%)
    Writing library : TMPGEnc 2.59.47.155
    Color primaries : BT.601 PAL
    Transfer characteristics : BT.470 System B, BT.470 System G
    Matrix coefficients : FCC 73.682

    Audio
    ID : 192 (0xC0)
    Format : MPEG Audio
    Format version : Version 1
    Format profile : Layer 2
    Duration : 3 min 22 s
    Bit rate mode : Constant
    Bit rate : 224 kb/s
    Channel(s) : 2 channels
    Sampling rate : 44.1 kHz
    Frame rate : 38.281 FPS (1152 SPF)
    Compression mode : Lossy
    Stream size : 5.41 MiB (4%)

    Hidden Content:
    You must either reply or click 'Like' to see the hidden information contained here.
     
    KJoon, Giselleiv4, nico1234 and 26 others like this.
  2. Loading...


  3. toonbbv

    toonbbv Well-Known Member

    Joined:
    Dec 11, 2013
    Messages:
    2,368
    Likes Received:
    119
    thank you
     
  4. BetaKsi

    BetaKsi Well-Known Member

    Joined:
    Oct 18, 2015
    Messages:
    2,749
    Likes Received:
    669
    Thank you))
     
  5. 010juninho

    010juninho Well-Known Member

    Joined:
    Jan 16, 2016
    Messages:
    1,282
    Likes Received:
    62
  6. Saint

    Saint WHY HELLO WORLD?

    Joined:
    Sep 22, 2014
    Messages:
    1,242
    Likes Received:
    99
    Thank Yoou
     
  7. hanshermann

    hanshermann Well-Known Member Uploader

    Joined:
    Aug 24, 2016
    Messages:
    7,822
    Likes Received:
    16,662
    wahts taht
     
  8. multimediafm

    multimediafm Well-Known Member Donor

    Joined:
    Mar 27, 2014
    Messages:
    14,536
    Likes Received:
    1,156
  9. kiiwii

    kiiwii Member

    Joined:
    Oct 10, 2013
    Messages:
    416
    Likes Received:
    12
    thank you
     
  10. D3mon86

    D3mon86 Active Member

    Joined:
    Dec 19, 2016
    Messages:
    1,114
    Likes Received:
    21
    thanks
     
  11. Rihfiles

    Rihfiles ♫ because it feels good from head to toe ♫

    Joined:
    Feb 13, 2018
    Messages:
    365
    Likes Received:
    8
    thank you
     
  12. RE4PER

    RE4PER Member

    Joined:
    Dec 23, 2016
    Messages:
    280
    Likes Received:
    5
    Thanks
     
  13. rkgmade

    rkgmade Well-Known Member

    Joined:
    Sep 29, 2016
    Messages:
    2,083
    Likes Received:
    121
    t
    hanmk you
     
  14. ander.p.u

    ander.p.u Member

    Joined:
    Apr 19, 2018
    Messages:
    88
    Likes Received:
    2
    ¡Gracias!
     
  15. peidofeito

    peidofeito Member

    Joined:
    Sep 4, 2016
    Messages:
    173
    Likes Received:
    2
  16. carlinhosdoda

    carlinhosdoda Active Member

    Joined:
    Oct 16, 2016
    Messages:
    177
    Likes Received:
    26
  17. getteg

    getteg Active Member

    Joined:
    Sep 24, 2014
    Messages:
    573
    Likes Received:
    31
    thanks
     
  18. yoncequality

    yoncequality Member

    Joined:
    Jan 8, 2018
    Messages:
    269
    Likes Received:
    7
    sdfghyjuiop;oiuyjhgtfrdsasdfghjkl
     
  19. engingg

    engingg New Member

    Joined:
    Feb 9, 2019
    Messages:
    11
    Likes Received:
    0
    thanks
     
  20. luisfe1993

    luisfe1993 Member

    Joined:
    Sep 2, 2018
    Messages:
    209
    Likes Received:
    8
  21. luisfe1993

    luisfe1993 Member

    Joined:
    Sep 2, 2018
    Messages:
    209
    Likes Received:
    8