SDTV Beyonce - Crazy In Love (Live At T4 Popworld)

Discussion in 'SD Live Performances' started by Pavulon, Dec 27, 2017.

  1. Pavulon

    Pavulon Well-Known Member Donor

    Joined:
    Mar 22, 2016
    Messages:
    4,588
    Likes Received:
    993
    Beyonce - Crazy In Love (Live At T4 Popworld)



    Format : MPEG-PS
    File size : 128 MiB
    Duration : 3 min 22 s
    Overall bit rate mode : Variable
    Overall bit rate : 5 280 kb/s
    Writing library : encoded by TMPGEnc (ver. 2.59.47.155)

    Video
    ID : 224 (0xE0)
    Format : MPEG Video
    Format version : Version 2
    Format profile : Main@Main
    Format settings : CustomMatrix / BVOP
    Format settings, BVOP : Yes
    Format settings, Matrix : Custom
    Format settings, GOP : Variable
    Duration : 3 min 22 s
    Bit rate mode : Variable
    Bit rate : 4 951 kb/s
    Maximum bit rate : 9 800 kb/s
    Width : 480 pixels
    Height : 576 pixels
    Display aspect ratio : 4:3
    Frame rate : 25.000 FPS
    Standard : PAL
    Color space : YUV
    Chroma subsampling : 4:2:0
    Bit depth : 8 bits
    Scan type : Progressive
    Compression mode : Lossy
    Bits/(Pixel*Frame) : 0.716
    Time code of first frame : 00:00:00:00
    Time code source : Group of pictures header
    Stream size : 120 MiB (94%)
    Writing library : TMPGEnc 2.59.47.155
    Color primaries : BT.601 PAL
    Transfer characteristics : BT.470 System B, BT.470 System G
    Matrix coefficients : FCC 73.682

    Audio
    ID : 192 (0xC0)
    Format : MPEG Audio
    Format version : Version 1
    Format profile : Layer 2
    Duration : 3 min 22 s
    Bit rate mode : Constant
    Bit rate : 224 kb/s
    Channel(s) : 2 channels
    Sampling rate : 44.1 kHz
    Frame rate : 38.281 FPS (1152 SPF)
    Compression mode : Lossy
    Stream size : 5.41 MiB (4%)

    Hidden Content:
    You must either reply or click 'Like' to see the hidden information contained here.
     
  2. Loading...


  3. toonbbv

    toonbbv Well-Known Member

    Joined:
    Dec 11, 2013
    Messages:
    2,251
    Likes Received:
    106
    thank you
     
  4. BetaKsi

    BetaKsi Well-Known Member

    Joined:
    Oct 18, 2015
    Messages:
    2,119
    Likes Received:
    572
    Thank you))
     
  5. 010juninho

    010juninho Well-Known Member

    Joined:
    Jan 16, 2016
    Messages:
    1,118
    Likes Received:
    52
  6. Saint

    Saint WHY HELLO WORLD?

    Joined:
    Sep 22, 2014
    Messages:
    1,192
    Likes Received:
    130
    Thank Yoou
     
  7. hanshermann

    hanshermann Well-Known Member Uploader

    Joined:
    Aug 24, 2016
    Messages:
    7,052
    Likes Received:
    11,742
    wahts taht
     
  8. multimediafm

    multimediafm Well-Known Member Donor

    Joined:
    Mar 27, 2014
    Messages:
    13,292
    Likes Received:
    1,057
  9. kiiwii

    kiiwii Member

    Joined:
    Oct 10, 2013
    Messages:
    379
    Likes Received:
    10
    thank you
     
  10. D3mon86

    D3mon86 Member

    Joined:
    Dec 19, 2016
    Messages:
    849
    Likes Received:
    15
    thanks
     
  11. Rihfiles

    Rihfiles ♫ because it feels good from head to toe ♫

    Joined:
    Feb 13, 2018
    Messages:
    357
    Likes Received:
    8
    thank you
     
  12. RE4PER

    RE4PER Member

    Joined:
    Dec 23, 2016
    Messages:
    251
    Likes Received:
    5
    Thanks
     
  13. rkgmade

    rkgmade Well-Known Member

    Joined:
    Sep 29, 2016
    Messages:
    1,416
    Likes Received:
    72
    t
    hanmk you
     
  14. ander.p.u

    ander.p.u Member

    Joined:
    Apr 19, 2018
    Messages:
    64
    Likes Received:
    2
    ¡Gracias!
     
  15. peidofeito

    peidofeito Member

    Joined:
    Sep 4, 2016
    Messages:
    157
    Likes Received:
    2
  16. carlinhosdoda

    carlinhosdoda Member

    Joined:
    Oct 16, 2016
    Messages:
    113
    Likes Received:
    20