Beyonce - Crazy In Love (good_morning_america) 2006

Discussion in 'SD Live Performances' started by miguelmr87, Feb 1, 2018.

  1. miguelmr87

    miguelmr87 Well-Known Member

    Joined:
    Dec 20, 2013
    Messages:
    1,216
    Likes Received:
    281
    [​IMG]
    \02 BDay\Beyonce - LIVE - Crazy In Love (good_morning_america)-svcd.mpg
    Format : MPEG-PS
    Duration : 3 min 41 s
    Overall bit rate mode : Constant
    Overall bit rate : 2 701 kb/s
    Writing library : encoded by TMPGEnc 3.0 XPress Version. 3.0.4.24

    Video
    ID : 224 (0xE0)
    Format : MPEG Video
    Format version : Version 2
    Format profile : Main@Main
    Format settings : CustomMatrix / BVOP
    Format settings, BVOP : Yes
    Format settings, Matrix : Custom
    Format settings, GOP : Variable
    Format settings, picture structure : Frame
    Duration : 3 min 41 s
    Bit rate mode : Constant
    Bit rate : 2 444 kb/s
    Width : 480 pixels
    Height : 480 pixels
    Display aspect ratio : 4:3
    Frame rate : 29.970 (30000/1001) FPS
    Standard : NTSC
    Color space : YUV
    Chroma subsampling : 4:2:0
    Bit depth : 8 bits
    Scan type : Interlaced
    Scan order : Top Field First
    Compression mode : Lossy
    Bits/(Pixel*Frame) : 0.354
    Time code of first frame : 00:00:00:00
    Time code source : Group of pictures header
    Stream size : 63.9 MiB (90%)
    Writing library : TMPGEnc 3.0 XPress Version. 3.0.4.24
    Color primaries : BT.601 PAL
    Transfer characteristics : BT.470 System B, BT.470 System G
    Matrix coefficients : FCC 73.682

    Audio
    ID : 192 (0xC0)
    Format : MPEG Audio
    Format version : Version 1
    Format profile : Layer 2
    Duration : 3 min 41 s
    Bit rate mode : Constant
    Bit rate : 224 kb/s
    Channel(s) : 2 channels
    Sampling rate : 44.1 kHz
    Frame rate : 38.281 FPS (1152 SPF)
    Compression mode : Lossy
    Stream size : 5.90 MiB (8%)

    mega
    Hidden Content:
    You must reply before you can see the hidden data contained here.
     
  2. Loading...


  3. BetaKsi

    BetaKsi Well-Known Member

    Joined:
    Oct 18, 2015
    Messages:
    1,931
    Likes Received:
    537
    Thank you))
     
  4. carlos69

    carlos69 Well-Known Member

    Joined:
    Dec 17, 2013
    Messages:
    1,251
    Likes Received:
    92
    Thanks
     
  5. toonbbv

    toonbbv Well-Known Member

    Joined:
    Dec 11, 2013
    Messages:
    2,188
    Likes Received:
    103
    thank you
     
  6. Mat123

    Mat123 Member

    Joined:
    Jan 9, 2018
    Messages:
    645
    Likes Received:
    10
    thanks
     
  7. hanshermann

    hanshermann Well-Known Member Uploader

    Joined:
    Aug 24, 2016
    Messages:
    6,464
    Likes Received:
    9,976
    wahts taht
     
  8. biglovejoy

    biglovejoy Member

    Joined:
    Jan 10, 2018
    Messages:
    559
    Likes Received:
    3
    Thanks!
     
  9. maxmax

    maxmax Member

    Joined:
    Jan 11, 2018
    Messages:
    155
    Likes Received:
    3
    thanksssssssssssss
     
  10. apl3

    apl3 Well-Known Member

    Joined:
    Jun 11, 2017
    Messages:
    1,042
    Likes Received:
    29
    thanks
     
  11. lim

    lim Well-Known Member

    Joined:
    Nov 8, 2013
    Messages:
    2,030
    Likes Received:
    76
    thanks
     
  12. Mine Motivated

    Mine Motivated Member

    Joined:
    Oct 23, 2016
    Messages:
    151
    Likes Received:
    17
  13. Nicolas Martins

    Nicolas Martins Saint

    Joined:
    Sep 22, 2014
    Messages:
    1,147
    Likes Received:
    127
  14. multimediafm

    multimediafm Well-Known Member Donor

    Joined:
    Mar 27, 2014
    Messages:
    12,883
    Likes Received:
    1,013
  15. revilo18

    revilo18 Well-Known Member

    Joined:
    May 26, 2016
    Messages:
    2,072
    Likes Received:
    103
    th
    ankkkkkkkkkkkkk
     
  16. exterminador

    exterminador Well-Known Member

    Joined:
    Jul 3, 2016
    Messages:
    2,306
    Likes Received:
    201
  17. BeyoncePolska

    BeyoncePolska Member

    Joined:
    Feb 19, 2018
    Messages:
    65
    Likes Received:
    1
  18. yoncequality

    yoncequality Member

    Joined:
    Jan 8, 2018
    Messages:
    195
    Likes Received:
    4
    than
    thanks
     
  19. jerrmx

    jerrmx Active Member

    Joined:
    Sep 8, 2016
    Messages:
    657
    Likes Received:
    39
    thanks
     
  20. Ramon

    Ramon Member

    Joined:
    Feb 26, 2018
    Messages:
    280
    Likes Received:
    4
    obrigado
     
  21. Yoncevsfierce69

    Yoncevsfierce69 Member

    Joined:
    Oct 19, 2016
    Messages:
    82
    Likes Received:
    0
    Omg yeaaah Bee