Beyonce - 1+1 (Trace HD-1080i)-Olgold

Discussion in 'TRACE URBAN HD' started by Olgold, Aug 25, 2015.

  1. Olgold

    Olgold Well-Known Member Capper

    Joined:
    Aug 19, 2015
    Messages:
    386
    Likes Received:
    1,303
    [​IMG]
    General
    Format : MPEG-TS
    File size : 242 MiB
    Duration : 4mn 26s
    Overall bit rate mode : Variable
    Overall bit rate : 7 610 Kbps

    Video
    Format : AVC
    Format/Info : Advanced Video Codec
    Format profile : [email protected]
    Format settings, CABAC : Yes
    Format settings, ReFrames : 4 frames
    Duration : 4mn 27s
    Bit rate : 7 040 Kbps
    Width : 1 920 pixels
    Height : 1 080 pixels
    Display aspect ratio : 16:9
    Frame rate : 25.000 fps
    Standard : Component
    Color space : YUV
    Chroma subsampling : 4:2:0
    Bit depth : 8 bits
    Scan type : Interlaced
    Scan order : Top Field First
    Bits/(Pixel*Frame) : 0.136
    Stream size : 224 MiB (93%)
    Color range : Limited

    Audio
    Format : MPEG Audio
    Format version : Version 1
    Format profile : Layer 2
    Duration : 4mn 26s
    Bit rate mode : Constant
    Bit rate : 192 Kbps
    Channel(s) : 2 channels
    Sampling rate : 48.0 KHz
    Compression mode : Lossy
    Delay relative to video : 132ms
    Stream size : 6.11 MiB (3%)
    Language : English

    Hidden Content:
    You must reply before you can see the hidden data contained here.
     
    rhea, CELOBRAZiL and 777josem like this.
  2. Loading...


  3. rhea

    rhea Well-Known Member

    Joined:
    Jan 6, 2014
    Messages:
    5,193
    Likes Received:
    250
    thank you so much!
     
  4. Crusha

    Crusha Well-Known Member Capper

    Joined:
    Oct 15, 2014
    Messages:
    2,349
    Likes Received:
    2,065
    thank you
     
  5. limonato

    limonato Member

    Joined:
    Dec 1, 2014
    Messages:
    159
    Likes Received:
    0
    thank you
     
  6. bibidj

    bibidj New Member

    Joined:
    Sep 23, 2016
    Messages:
    28
    Likes Received:
    1
    dg
    ngdn