Beyoncé - Yoncé [1080p]

Discussion in 'PRORES' started by MerlinM, Jan 16, 2016.

  1. MerlinM

    MerlinM Well-Known Member

    Joined:
    Apr 20, 2014
    Messages:
    326
    Likes Received:
    300
    [​IMG]

    Code:
    General
    Complete name                  : Beyoncé - Yoncé [1080p].mov
    Format                         : MPEG-4
    Format profile                 : QuickTime
    Codec ID                       : qt   0000.00 (qt  )
    File size                      : 1.00 GiB
    Duration                       : 2 min 1 s
    Overall bit rate mode          : Variable
    Overall bit rate               : 70.9 Mb/s
    Encoded date                   : UTC 2013-12-22 16:31:06
    Tagged date                    : UTC 2013-12-22 16:31:44
    Writing library                : Apple QuickTime
    
    Video
    ID                             : 1
    Format                         : ProRes
    Format version                 : Version 0
    Format profile                 : 422 LT
    Codec ID                       : apcs
    Duration                       : 2 min 1 s
    Bit rate mode                  : Variable
    Bit rate                       : 68.5 Mb/s
    Width                          : 1 920 pixels
    Height                         : 1 080 pixels
    Display aspect ratio           : 16:9
    Frame rate mode                : Constant
    Frame rate                     : 23.976 (24000/1001) FPS
    Color space                    : YUV
    Chroma subsampling             : 4:2:2
    Scan type                      : Progressive
    Bits/(Pixel*Frame)             : 1.378
    Stream size                    : 990 MiB (97%)
    Title                          : Core Media Video
    Writing library                : Apple
    Encoded date                   : UTC 2013-12-22 16:31:06
    Tagged date                    : UTC 2013-12-22 16:31:44
    Color primaries                : BT.709
    Transfer characteristics       : BT.709
    Matrix coefficients            : BT.709
    
    Audio
    ID                             : 2
    Format                         : PCM
    Format settings                : Little / Signed
    Codec ID                       : in24
    Duration                       : 2 min 1 s
    Bit rate mode                  : Constant
    Bit rate                       : 2 304 kb/s
    Channel(s)                     : 2 channels
    Channel positions              : Front: L R
    Sampling rate                  : 48.0 kHz
    Bit depth                      : 24 bits
    Stream size                    : 33.3 MiB (3%)
    Title                          : Core Media Audio
    Encoded date                   : UTC 2013-12-22 16:31:06
    Tagged date                    : UTC 2013-12-22 16:31:44
    
    Other
    ID                             : 3
    Type                           : Time code
    Format                         : QuickTime TC
    Duration                       : 2 min 1 s
    Time code of first frame       : 00:00:00:00
    Time code, striped             : Yes
    Title                          : Core Media Time Code
    Encoded date                   : UTC 2013-12-22 16:31:06
    Tagged date                    : UTC 2013-12-22 16:31:44

    Server: MEGA

    Download:
    Hidden Content:
    You must reply before you can see the hidden data contained here.
     
    Last edited: Mar 13, 2018
    foka43210, thatonedread, alex and 3 others like this.
  2. Loading...


  3. kalo

    kalo Member

    Joined:
    May 25, 2015
    Messages:
    432
    Likes Received:
    16
    thanks
     
  4. Snorom6

    Snorom6 Well-Known Member V . I . P. Uploader

    Joined:
    Dec 17, 2015
    Messages:
    4,248
    Likes Received:
    5,707
  5. Leonardo7777777

    Leonardo7777777 Member

    Joined:
    Jan 3, 2016
    Messages:
    410
    Likes Received:
    19
    thanks
     
  6. plopplop

    plopplop Member

    Joined:
    Nov 1, 2015
    Messages:
    48
    Likes Received:
    5
    Hidden Content:
    You must either reply or click 'Like' to see the hidden information contained here.
     
    leonardol4e92 likes this.
  7. Anggi Edwarsa

    Anggi Edwarsa Active Member

    Joined:
    May 3, 2014
    Messages:
    373
    Likes Received:
    154
    Nice uploader. :)
     
  8. revan1999

    revan1999 New Member

    Joined:
    Jan 27, 2016
    Messages:
    29
    Likes Received:
    0
  9. GHN

    GHN Member

    Joined:
    Oct 27, 2014
    Messages:
    568
    Likes Received:
    17
    Thank you
     
  10. highlands

    highlands Member

    Joined:
    May 23, 2015
    Messages:
    153
    Likes Received:
    4
    Thank you ! :)
     
  11. mike gunen

    mike gunen Active Member

    Joined:
    Nov 9, 2013
    Messages:
    947
    Likes Received:
    40
    Thank you
     
  12. vnnloser

    vnnloser New Member

    Joined:
    Feb 3, 2016
    Messages:
    20
    Likes Received:
    0
  13. HDcollector

    HDcollector Member

    Joined:
    Dec 15, 2013
    Messages:
    440
    Likes Received:
    8
  14. stereo1991

    stereo1991 Member

    Joined:
    Oct 21, 2015
    Messages:
    173
    Likes Received:
    1
    Thank you
     
  15. z0ntik

    z0ntik Member

    Joined:
    Feb 29, 2016
    Messages:
    238
    Likes Received:
    18
    Member
     
  16. multimediafm

    multimediafm Well-Known Member Donor

    Joined:
    Mar 27, 2014
    Messages:
    12,393
    Likes Received:
    968
    Thanks :)
    Beyoncé - Yoncé [1080p]
     
  17. alex

    alex Well-Known Member

    Joined:
    Nov 21, 2013
    Messages:
    4,578
    Likes Received:
    383
    Thank you
     
  18. loevibes

    loevibes Active Member

    Joined:
    Apr 7, 2016
    Messages:
    292
    Likes Received:
    25
  19. Tommyboy

    Tommyboy Active Member

    Joined:
    Oct 23, 2016
    Messages:
    865
    Likes Received:
    35
    Preeshee 8 this,
     
  20. thatonedread

    thatonedread Active Member

    Joined:
    May 4, 2016
    Messages:
    509
    Likes Received:
    35
    More love man! Thank you once more!!
     
  21. Guilhermejpc

    Guilhermejpc Member

    Joined:
    Oct 27, 2016
    Messages:
    290
    Likes Received:
    2
    thanksss!