WEB-RiP Beyoncé - Year of 4 (Vimeo-1080p-Abdi) [RE-UP]

Discussion in 'Documentaries' started by hanshermann, Oct 13, 2017.

  1. hanshermann

    hanshermann Well-Known Member Uploader

    Joined:
    Aug 24, 2016
    Messages:
    7,018
    Likes Received:
    11,685
    [​IMG]

    Beyoncé - Year of 4 (Vimeo-1080p-Abdi)

    Code:
    General
    Complete name               : Beyoncé - Year of 4 (Vimeo-1080p-Abdi).mp4
    Format                      : MPEG-4
    Format profile              : Base Media / Version 2
    Codec ID                    : mp42 (isom/mp42)
    File size                   : 808 MiB
    Duration                    : 21 min 42 s
    Overall bit rate mode       : Variable
    Overall bit rate            : 5 203 kb/s
    Encoded date                : UTC 2011-06-30 00:24:08
    Tagged date                 : UTC 2011-06-30 00:24:08
    gsst                        : 0
    gstd                        : 1302630
    gssd                        : BADC21801HH1309725578052056
    gshh                        : o-o.preferred.dfw06s10.v16.lscache3.c.youtube.com
    
    Video
    ID                          : 1
    Format                      : AVC
    Format/Info                 : Advanced Video Codec
    Format profile              : High@L4
    Format settings, CABAC      : Yes
    Format settings, ReFrames   : 1 frame
    Codec ID                    : avc1
    Codec ID/Info               : Advanced Video Coding
    Duration                    : 21 min 42 s
    Bit rate                    : 5 045 kb/s
    Maximum bit rate            : 11.6 Mb/s
    Width                       : 1 920 pixels
    Height                      : 1 080 pixels
    Display aspect ratio        : 16:9
    Frame rate mode             : Variable
    Frame rate                  : 29.970 (29970/1000) FPS
    Minimum frame rate          : 29.412 FPS
    Maximum frame rate          : 200.000 FPS
    Color space                 : YUV
    Chroma subsampling          : 4:2:0
    Bit depth                   : 8 bits
    Scan type                   : Progressive
    Bits/(Pixel*Frame)          : 0.081
    Stream size                 : 783 MiB (97%)
    Encoded date                : UTC 1970-01-01 00:00:00
    Tagged date                 : UTC 2011-06-30 00:24:35
    
    Audio
    ID                          : 2
    Format                      : AAC
    Format/Info                 : Advanced Audio Codec
    Format profile              : LC
    Codec ID                    : 40
    Duration                    : 21 min 42 s
    Bit rate mode               : Variable
    Bit rate                    : 152 kb/s
    Maximum bit rate            : 243 kb/s
    Channel(s)                  : 2 channels
    Channel positions           : Front: L R
    Sampling rate               : 44.1 kHz
    Frame rate                  : 43.066 FPS (1024 spf)
    Compression mode            : Lossy
    Stream size                 : 23.6 MiB (3%)
    Title                       : IsoMedia File Produced by Google, 5-11-2011
    Encoded date                : UTC 2011-06-30 00:24:20
    Tagged date                 : UTC 2011-06-30 00:24:35
    
    Hidden Content:
    You must either reply or click 'Like' to see the hidden information contained here.
     
    Last edited: Apr 14, 2018
  2. Loading...


  3. 010juninho

    010juninho Well-Known Member

    Joined:
    Jan 16, 2016
    Messages:
    1,114
    Likes Received:
    52
  4. qweeenbey

    qweeenbey Member

    Joined:
    Sep 30, 2017
    Messages:
    461
    Likes Received:
    22
    thanks
     
  5. cacgv

    cacgv Member

    Joined:
    Nov 22, 2017
    Messages:
    129
    Likes Received:
    1
    thxxxxx
     
  6. mizdot

    mizdot Well-Known Member

    Joined:
    Nov 13, 2014
    Messages:
    2,850
    Likes Received:
    121
    tnx man
     
  7. Tommyboy

    Tommyboy Active Member

    Joined:
    Oct 23, 2016
    Messages:
    948
    Likes Received:
    36
    PreeSh8
     
  8. Mat123

    Mat123 Member

    Joined:
    Jan 9, 2018
    Messages:
    684
    Likes Received:
    13
    thanks
     
  9. squallmc

    squallmc Member

    Joined:
    Aug 30, 2016
    Messages:
    118
    Likes Received:
    5
    thanks
     
  10. alterion

    alterion Well-Known Member

    Joined:
    May 7, 2016
    Messages:
    1,153
    Likes Received:
    31
  11. a.lav22_

    a.lav22_ Member

    Joined:
    Jul 5, 2018
    Messages:
    257
    Likes Received:
    1
    erwrwerwser
     
  12. fendyzachariey

    fendyzachariey Member

    Joined:
    Jun 23, 2017
    Messages:
    457
    Likes Received:
    7