WEB-RiP Beyoncé - XO (Live from Mrs. Carter Show World Tour) - X10 M4V FULL HD

Discussion in 'HD Live Performances' started by Marcos Sannin, Apr 18, 2019.

  1. Marcos Sannin

    Marcos Sannin Well-Known Member

    Joined:
    Dec 11, 2014
    Messages:
    1,132
    Likes Received:
    1,608
    [​IMG]
    Complete name : 10 XO (Live from Mrs. Carter Show World Tour).m4v
    Format : MPEG-4
    Codec ID : M4V (M4V /mp42/isom)
    File size : 153 MiB
    Duration : 3 min 54 s
    Overall bit rate : 5 478 kb/s
    Movie name : XO (Live from Mrs. Carter Show World Tour)
    Track name/Position : 10
    Performer : Beyoncé
    Genre : Pop
    ContentType : Music Video
    Recorded date : UTC 2014-11-24 08:00:00
    Encoded date : UTC 2015-06-01 14:25:03
    Tagged date : UTC 2015-06-01 14:25:03
    Cover : Yes
    Rating : None
    AppleStoreAccount : melinapalermo2@maildu.de
    ownr : Melina Palermo
    AppleStoreCatalogID : 939778333
    AlbumTitleID : 1419227
    GenreID : 1614
    AppleStoreCountry : 143485
    PurchaseDate : 2017-12-16 17:02:41
    Vendor : SonyBMG:vendor_id:886444935265_USSM21401914
    Flavour : 18:1080p
    ContentRating : ||0|

    Video
    ID : 1
    Format : AVC
    Format/Info : Advanced Video Codec
    Format profile : High@L4
    Format settings : CABAC / 4 Ref Frames
    Format settings, CABAC : Yes
    Format settings, ReFrames : 4 frames
    Codec ID : avc1
    Codec ID/Info : Advanced Video Coding
    Duration : 3 min 54 s
    Bit rate : 5 184 kb/s
    Width : 1 920 pixels
    Height : 1 080 pixels
    Display aspect ratio : 16:9
    Frame rate mode : Variable
    Frame rate : 23.976 FPS
    Minimum frame rate : 23.976 FPS
    Maximum frame rate : 24.975 FPS
    Color space : YUV
    Chroma subsampling : 4:2:0
    Bit depth : 8 bits
    Scan type : Progressive
    Bits/(Pixel*Frame) : 0.104
    Stream size : 145 MiB (95%)
    Title : Core Media Video
    Language : English
    Encoded date : UTC 2015-06-01 14:25:03
    Tagged date : UTC 2015-06-01 14:25:03
    Color range : Limited
    Color primaries : BT.709
    Transfer characteristics : BT.709
    Matrix coefficients : BT.709

    Audio
    ID : 2
    Format : AAC
    Format/Info : Advanced Audio Codec
    Format profile : LC
    Codec ID : mp4a-40-2
    Duration : 3 min 54 s
    Source duration : 3 min 54 s
    Bit rate mode : Constant
    Bit rate : 256 kb/s
    Channel(s) : 2 channels
    Channel positions : Front: L R
    Sampling rate : 48.0 kHz
    Frame rate : 46.875 FPS (1024 SPF)
    Compression mode : Lossy
    Stream size : 7.07 MiB (5%)
    Source stream size : 7.07 MiB (5%)
    Title : Core Media Audio
    Language : English
    Encoded date : UTC 2015-06-01 14:25:03
    Tagged date : UTC 2015-06-01 14:25:03

    Google Drive
    Hidden Content:
    You must either reply or click 'Like' to see the hidden information contained here.
     
    Ramon, ellyzeu, yoncetube and 17 others like this.
  2. Loading...


  3. hanshermann

    hanshermann Well-Known Member Uploader

    Joined:
    Aug 24, 2016
    Messages:
    7,827
    Likes Received:
    18,117
    wahts taht
     
  4. digimaze

    digimaze Well-Known Member

    Joined:
    Feb 11, 2015
    Messages:
    2,142
    Likes Received:
    173
    thanks
     
  5. AthiJ

    AthiJ Member

    Joined:
    Oct 30, 2016
    Messages:
    128
    Likes Received:
    7
    Thanks.
     
  6. solita456p

    solita456p Member

    Joined:
    Jun 12, 2018
    Messages:
    142
    Likes Received:
    3
    GRACIAS
     
  7. KJoon

    KJoon Member

    Joined:
    Mar 13, 2019
    Messages:
    75
    Likes Received:
    5
    Thank.
     
  8. django

    django Active Member

    Joined:
    Oct 21, 2014
    Messages:
    429
    Likes Received:
    35
    thanks
     
  9. Rega

    Rega Member

    Joined:
    Feb 9, 2017
    Messages:
    142
    Likes Received:
    5
  10. emmanuelquiroga

    emmanuelquiroga Member

    Joined:
    Apr 22, 2019
    Messages:
    197
    Likes Received:
    4
  11. emmanuelquiroga

    emmanuelquiroga Member

    Joined:
    Apr 22, 2019
    Messages:
    197
    Likes Received:
    4
  12. DCunplug

    DCunplug Member

    Joined:
    Oct 11, 2015
    Messages:
    199
    Likes Received:
    7
  13. Ayann

    Ayann Member

    Joined:
    Oct 27, 2016
    Messages:
    45
    Likes Received:
    2
    thanks
     
  14. Dj samzo

    Dj samzo Active Member

    Joined:
    Sep 27, 2017
    Messages:
    994
    Likes Received:
    76
    thank you
     
  15. Dj samzo

    Dj samzo Active Member

    Joined:
    Sep 27, 2017
    Messages:
    994
    Likes Received:
    76
    thank you
     
  16. Mat123

    Mat123 Member

    Joined:
    Jan 9, 2018
    Messages:
    847
    Likes Received:
    21
    thanks
     
  17. luismoreno

    luismoreno Member

    Joined:
    Jan 23, 2017
    Messages:
    163
    Likes Received:
    4
    thank you
     
  18. yonceonhismouth

    yonceonhismouth Member

    Joined:
    May 18, 2019
    Messages:
    101
    Likes Received:
    2
  19. Corwin Edrian

    Corwin Edrian Corsu

    Joined:
    Dec 26, 2017
    Messages:
    292
    Likes Received:
    7
  20. derekdilan

    derekdilan Member

    Joined:
    Jan 13, 2017
    Messages:
    156
    Likes Received:
    2
    gracias
     
  21. rudegalrobz

    rudegalrobz Member

    Joined:
    Feb 1, 2018
    Messages:
    122
    Likes Received:
    3