Beyoncé - Why Don't You Love Me (MTV BASE HD-1080i-DD2.0-Olgold)

Discussion in 'MTV BASE' started by DETOX, Feb 24, 2015.

  1. DETOX

    DETOX Well-Known Member V . I . P. Uploader

    Joined:
    Feb 20, 2014
    Messages:
    2,748
    Likes Received:
    13,840


    Beyoncé - Why Don't You Love Me (MTV BASE HD-1080i-DD2.0-Olgold)
    [​IMG]

    General
    ID : 16 (0x10)
    Complete name : Beyoncé - Why Don't You Love Me (MTV BASE HD-1080i-DD2.0-Olgold).ts
    Format : MPEG-TS
    File size : 356 MiB
    Duration : 4mn 0s
    Overall bit rate mode : Variable
    Overall bit rate : 12.4 Mbps

    Video
    ID : 110 (0x6E)
    Menu ID : 8001 (0x1F41)
    Format : AVC
    Format/Info : Advanced Video Codec
    Format profile : High@L4.0
    Format settings, CABAC : Yes
    Format settings, ReFrames : 4 frames
    Codec ID : 27
    Duration : 4mn 0s
    Bit rate : 11.5 Mbps
    Width : 1 920 pixels
    Height : 1 080 pixels
    Display aspect ratio : 16:9
    Frame rate : 25.000 fps
    Standard : Component
    Color space : YUV
    Chroma subsampling : 4:2:0
    Bit depth : 8 bits
    Scan type : MBAFF
    Scan order : Top Field First
    Bits/(Pixel*Frame) : 0.222
    Stream size : 330 MiB (93%)
    Color primaries : BT.709
    Transfer characteristics : BT.709
    Matrix coefficients : BT.709
    Color range : Limited

    Audio
    ID : 121 (0x79)
    Menu ID : 8001 (0x1F41)
    Format : AC-3
    Format/Info : Audio Coding 3
    Mode extension : CM (complete main)
    Format settings, Endianness : Big
    Codec ID : 6
    Duration : 4mn 0s
    Bit rate mode : Constant
    Bit rate : 256 Kbps
    Channel(s) : 2 channels
    Channel positions : Front: L R
    Sampling rate : 48.0 KHz
    Bit depth : 16 bits
    Compression mode : Lossy
    Delay relative to video : 20ms
    Stream size : 7.34 MiB (2%)
    Language : English
    Language, more info : Clean effects

    Credits to Olgold

    SERVER: MEGA / PASSWORD: DETOX

    Hidden Content:
    You must reply before you can see the hidden data contained here.
     
    Last edited: Mar 3, 2015
  2. Loading...


  3. rhea

    rhea Well-Known Member

    Joined:
    Jan 6, 2014
    Messages:
    5,258
    Likes Received:
    253
    thank you so much!
     
  4. fernando cabrera

    fernando cabrera Member

    Joined:
    Sep 21, 2014
    Messages:
    94
    Likes Received:
    2
     
  5. mike gunen

    mike gunen Member

    Joined:
    Nov 9, 2013
    Messages:
    677
    Likes Received:
    13
    thank you
     
  6. Chris

    Chris Member

    Joined:
    Oct 19, 2013
    Messages:
    514
    Likes Received:
    15
    Thank you
     
  7. mizdot

    mizdot Active Member

    Joined:
    Nov 13, 2014
    Messages:
    1,187
    Likes Received:
    21
    tnx man
     
  8. PoolBB

    PoolBB New Member

    Joined:
    Nov 10, 2014
    Messages:
    27
    Likes Received:
    0
    thank u
     
  9. Danielcha

    Danielcha Member

    Joined:
    Sep 20, 2014
    Messages:
    74
    Likes Received:
    0
    thanks so much
     
  10. legros08

    legros08 Member

    Joined:
    Sep 4, 2014
    Messages:
    46
    Likes Received:
    0
    merci beaucoup !!
     
  11. Alexander

    Alexander Member

    Joined:
    Apr 7, 2014
    Messages:
    76
    Likes Received:
    6
     
  12. brit

    brit Member

    Joined:
    Dec 14, 2013
    Messages:
    258
    Likes Received:
    3
    thank you
     
  13. andersom.bk

    andersom.bk Member

    Joined:
    Jul 11, 2014
    Messages:
    119
    Likes Received:
    5
    OBRIGADIOOOOO H POR POSAR
     
  14. Marcos Sannin

    Marcos Sannin Active Member

    Joined:
    Dec 11, 2014
    Messages:
    193
    Likes Received:
    26
  15. kalo

    kalo Member

    Joined:
    May 25, 2015
    Messages:
    302
    Likes Received:
    5
    thank you very much
     
  16. Ayrtontito

    Ayrtontito New Member

    Joined:
    Oct 22, 2014
    Messages:
    24
    Likes Received:
    1
    thankssss u
     
  17. Vinny

    Vinny Active Member

    Joined:
    Dec 26, 2013
    Messages:
    1,754
    Likes Received:
    7
    Thanks! ;D
     
  18. yhkim

    yhkim Active Member

    Joined:
    Nov 19, 2013
    Messages:
    668
    Likes Received:
    6
    thank you so much
     
  19. Regis

    Regis Active Member

    Joined:
    Jul 14, 2015
    Messages:
    997
    Likes Received:
    25
    Thank You
     
  20. yonita

    yonita Member

    Joined:
    Mar 7, 2016
    Messages:
    350
    Likes Received:
    10
    gracias :3
     
  21. Pavulon

    Pavulon Active Member

    Joined:
    Mar 22, 2016
    Messages:
    1,040
    Likes Received:
    11
    thanks