BDRiP Beyoncé - The Beyonce Experience Live 2007 720p BluRay DTS x264-HZ

Discussion in 'BLU-RAY' started by hanshermann, Jun 30, 2017.

  1. hanshermann

    hanshermann Well-Known Member Uploader

    Joined:
    Aug 24, 2016
    Messages:
    7,018
    Likes Received:
    11,684
    [​IMG]

    Beyonce - The Beyonce Experience Live 2007 720p BluRay DTS x264-HZ

    Code:
    General
    Unique ID                   : 215237501902661112004441665749566652443 (0xA1ED3C296A42ADA3ADD4705428F0801B)
    Complete name               : Beyonce.The.Beyonce.Experience.Live.2007.720p.BluRay.DTS.x264-HZ.mkv
    Format                      : Matroska
    Format version              : Version 1
    File size                   : 6.55 GiB
    Duration                    : 2 h 10 min
    Overall bit rate            : 7 192 kb/s
    Encoded date                : UTC 2009-01-02 21:44:25
    Writing application         : mkvmerge v2.2.0 ('Turn It On Again') built on Mar  4 2008 12:58:26
    Writing library             : libebml v0.7.7 + libmatroska v0.8.1
    
    Video
    ID                          : 1
    Format                      : AVC
    Format/Info                 : Advanced Video Codec
    Format profile              : High@L4.1
    Format settings, CABAC      : Yes
    Format settings, ReFrames   : 4 frames
    Codec ID                    : V_MPEG4/ISO/AVC
    Duration                    : 2 h 10 min
    Bit rate                    : 6 435 kb/s
    Width                       : 1 280 pixels
    Height                      : 720 pixels
    Display aspect ratio        : 16:9
    Frame rate mode             : Constant
    Frame rate                  : 23.976 FPS
    Color space                 : YUV
    Chroma subsampling          : 4:2:0
    Bit depth                   : 8 bits
    Scan type                   : Progressive
    Bits/(Pixel*Frame)          : 0.291
    Stream size                 : 5.73 GiB (88%)
    Writing library             : x264 core 65 r1065M 681544e
    
    Language                    : English
    Default                     : Yes
    Forced                      : No
    
    Audio
    ID                          : 2
    Format                      : DTS
    Format/Info                 : Digital Theater Systems
    Mode                        : 16
    Format settings, Endianness : Big
    Codec ID                    : A_DTS
    Duration                    : 2 h 10 min
    Bit rate mode               : Constant
    Bit rate                    : 755 kb/s
    Channel(s)                  : 6 channels
    Channel positions           : Front: L C R, Side: L R, LFE
    Sampling rate               : 48.0 kHz
    Frame rate                  : 93.750 FPS (512 spf)
    Bit depth                   : 24 bits
    Compression mode            : Lossy
    Stream size                 : 703 MiB (10%)
    Default                     : Yes
    Forced                      : No
    Hidden Content:
    You must either reply or click 'Like' to see the hidden information contained here.
     
    Last edited: Jun 29, 2018
  2. Loading...


  3. lim

    lim Well-Known Member

    Joined:
    Nov 8, 2013
    Messages:
    2,032
    Likes Received:
    76
    thanks
     
  4. CELOBRAZiL

    CELOBRAZiL Well-Known Member Capper V . I . P. Donor

    Joined:
    Oct 2, 2013
    Messages:
    5,647
    Likes Received:
    18,125
    Thanks! :)
     
  5. yhnujm1

    yhnujm1 Member

    Joined:
    Jun 26, 2014
    Messages:
    398
    Likes Received:
    6
    thank you
     
  6. shopangle20

    shopangle20 Member

    Joined:
    Sep 30, 2015
    Messages:
    216
    Likes Received:
    11
    thxxxx
     
  7. kiiwii

    kiiwii Member

    Joined:
    Oct 10, 2013
    Messages:
    379
    Likes Received:
    10
    thank you
     
  8. dangminh9999

    dangminh9999 Member

    Joined:
    Aug 19, 2014
    Messages:
    153
    Likes Received:
    5
    thank you
     
  9. ImLoser

    ImLoser Well-Known Member

    Joined:
    May 12, 2016
    Messages:
    2,562
    Likes Received:
    91
    thanks
     
  10. kweenbey

    kweenbey Active Member

    Joined:
    Sep 20, 2016
    Messages:
    359
    Likes Received:
    273
    thank you
     
  11. beyreleases

    beyreleases Member

    Joined:
    Jul 7, 2017
    Messages:
    343
    Likes Received:
    8
    thanks
     
    Will Alvez likes this.
  12. Rhapsonyx

    Rhapsonyx Active Member

    Joined:
    May 14, 2015
    Messages:
    612
    Likes Received:
    47
    Thank you!! :D :D :D :D :D
     
  13. BlankFormatted

    BlankFormatted Member

    Joined:
    Nov 18, 2015
    Messages:
    315
    Likes Received:
    7
  14. frostyheaven

    frostyheaven Member

    Joined:
    Jun 17, 2016
    Messages:
    142
    Likes Received:
    6
  15. kismakk

    kismakk Member

    Joined:
    Jul 2, 2014
    Messages:
    530
    Likes Received:
    11
    thanks
     
  16. jempolgede

    jempolgede Member

    Joined:
    Dec 30, 2013
    Messages:
    300
    Likes Received:
    4
    thank you
     
  17. AthiJ

    AthiJ Member

    Joined:
    Oct 30, 2016
    Messages:
    72
    Likes Received:
    2
    Thank You.
     
  18. korani

    korani Member

    Joined:
    Nov 27, 2016
    Messages:
    272
    Likes Received:
    5
    thank you
     
  19. Will Alvez

    Will Alvez Member

    Joined:
    Aug 5, 2014
    Messages:
    83
    Likes Received:
    2
  20. gaelloko

    gaelloko Active Member

    Joined:
    Sep 27, 2014
    Messages:
    203
    Likes Received:
    67
    thanks![​IMG]
    Beyonce - The Beyonce Experience Live 2007 720p BluRay DTS x264-HZ
    Code:
    General
    Unique ID                   : 215237501902661112004441665749566652443 (0xA1ED3C296A42ADA3ADD4705428F0801B)
    Complete name               : Beyonce.The.Beyonce.Experience.Live.2007.720p.BluRay.DTS.x264-HZ.mkv
    Format                      : Matroska
    Format version              : Version 1
    File size                   : 6.55 GiB
    Duration                    : 2 h 10 min
    Overall bit rate            : 7 192 kb/s
    Encoded date                : UTC 2009-01-02 21:44:25
    Writing application         : mkvmerge v2.2.0 ('Turn It On Again') built on Mar  4 2008 12:58:26
    Writing library             : libebml v0.7.7 + libmatroska v0.8.1
    
    Video
    ID                          : 1
    Format                      : AVC
    Format/Info                 : Advanced Video Codec
    Format profile              : High@L4.1
    Format settings, CABAC      : Yes
    Format settings, ReFrames   : 4 frames
    Codec ID                    : V_MPEG4/ISO/AVC
    Duration                    : 2 h 10 min
    Bit rate                    : 6 435 kb/s
    Width                       : 1 280 pixels
    Height                      : 720 pixels
    Display aspect ratio        : 16:9
    Frame rate mode             : Constant
    Frame rate                  : 23.976 FPS
    Color space                 : YUV
    Chroma subsampling          : 4:2:0
    Bit depth                   : 8 bits
    Scan type                   : Progressive
    Bits/(Pixel*Frame)          : 0.291
    Stream size                 : 5.73 GiB (88%)
    Writing library             : x264 core 65 r1065M 681544e
    
    Language                    : English
    Default                     : Yes
    Forced                      : No
    
    Audio
    ID                          : 2
    Format                      : DTS
    Format/Info                 : Digital Theater Systems
    Mode                        : 16
    Format settings, Endianness : Big
    Codec ID                    : A_DTS
    Duration                    : 2 h 10 min
    Bit rate mode               : Constant
    Bit rate                    : 755 kb/s
    Channel(s)                  : 6 channels
    Channel positions           : Front: L C R, Side: L R, LFE
    Sampling rate               : 48.0 kHz
    Frame rate                  : 93.750 FPS (512 spf)
    Bit depth                   : 24 bits
    Compression mode            : Lossy
    Stream size                 : 703 MiB (10%)
    Default                     : Yes
    Forced                      : No
    ***Hidden content cannot be quoted.******Hidden content cannot be quoted.***[/hide-reply][/QUOTE]
     
  21. erroljr1977

    erroljr1977 Member

    Joined:
    Apr 18, 2017
    Messages:
    487
    Likes Received:
    20
    thanks