Beyoncé - Sweet Dreams (MTV BASE HD-1080i-DD2.0-Olgold)

Discussion in 'MTV BASE' started by DETOX, Feb 24, 2015.

  1. hanshermann

    hanshermann Well-Known Member Uploader

    Joined:
    Aug 24, 2016
    Messages:
    6,951
    Likes Received:
    11,258
    wahts taht
     
  2. bugmenot

    bugmenot Member

    Joined:
    Nov 17, 2016
    Messages:
    271
    Likes Received:
    7
    nice content
     
  3. Pedro16

    Pedro16 Member

    Joined:
    Jan 16, 2017
    Messages:
    213
    Likes Received:
    7
    Thanks!!!
     
  4. putatzo

    putatzo Member

    Joined:
    Sep 6, 2016
    Messages:
    108
    Likes Received:
    3
    ty u da best
     
  5. lim

    lim Well-Known Member

    Joined:
    Nov 8, 2013
    Messages:
    2,033
    Likes Received:
    76
    thanks
     
  6. FXYC808

    FXYC808 Member

    Joined:
    Sep 21, 2014
    Messages:
    59
    Likes Received:
    1
    thanks
     
  7. ARTI

    ARTI Yonce

    Joined:
    May 21, 2017
    Messages:
    346
    Likes Received:
    8
    thanks
     
  8. erroljr1977

    erroljr1977 Member

    Joined:
    Apr 18, 2017
    Messages:
    487
    Likes Received:
    19
    thanks
     
  9. madmessiah

    madmessiah Member

    Joined:
    Feb 22, 2016
    Messages:
    35
    Likes Received:
    0
  10. johan1993234556

    johan1993234556 Member

    Joined:
    Jul 18, 2017
    Messages:
    284
    Likes Received:
    4
  11. eoheinrich

    eoheinrich New Member

    Joined:
    Mar 1, 2017
    Messages:
    6
    Likes Received:
    0
    thanks a loooooot
     
  12. larzpolanzki

    larzpolanzki Member

    Joined:
    Feb 10, 2014
    Messages:
    601
    Likes Received:
    21
  13. DocLX

    DocLX New Member

    Joined:
    Dec 24, 2017
    Messages:
    5
    Likes Received:
    0
    Amazing Upscale

    Beyoncé - Sweet Dreams (MTV BASE HD-1080i-DD2.0-Olgold)
    [​IMG]

    General
    ID : 16 (0x10)
    Complete name : Beyoncé - Sweet Dreams (MTV BASE HD-1080i-DD2.0-Olgold).ts
    Format : MPEG-TS
    File size : 183 MiB
    Duration : 3mn 56s
    Overall bit rate mode : Variable
    Overall bit rate : 6 466 Kbps

    Video
    ID : 110 (0x6E)
    Menu ID : 8001 (0x1F41)
    Format : AVC
    Format/Info : Advanced Video Codec
    Format profile : High@L4.0
    Format settings, CABAC : Yes
    Format settings, ReFrames : 4 frames
    Format settings, GOP : M=8, N=24
    Codec ID : 27
    Duration : 3mn 56s
    Bit rate : 5 888 Kbps
    Width : 1 920 pixels
    Height : 1 080 pixels
    Display aspect ratio : 16:9
    Frame rate : 25.000 fps
    Standard : Component
    Color space : YUV
    Chroma subsampling : 4:2:0
    Bit depth : 8 bits
    Scan type : MBAFF
    Scan order : Top Field First
    Bits/(Pixel*Frame) : 0.114
    Stream size : 166 MiB (91%)
    Color primaries : BT.709
    Transfer characteristics : BT.709
    Matrix coefficients : BT.709
    Color range : Limited

    Audio
    ID : 121 (0x79)
    Menu ID : 8001 (0x1F41)
    Format : AC-3
    Format/Info : Audio Coding 3
    Mode extension : CM (complete main)
    Format settings, Endianness : Big
    Codec ID : 6
    Duration : 3mn 56s
    Bit rate mode : Constant
    Bit rate : 256 Kbps
    Channel(s) : 2 channels
    Channel positions : Front: L R
    Sampling rate : 48.0 KHz
    Bit depth : 16 bits
    Compression mode : Lossy
    Delay relative to video : 60ms
    Stream size : 7.23 MiB (4%)
    Language : English
    Language, more info : Clean effects

    Credits to Olgold

    SERVER: MEGA / PASSWORD: DETOX

    ***Hidden content cannot be quoted.***
    [/QUOTE]

    ] Amazing

    Beyoncé - Sweet Dreams (MTV BASE HD-1080i-DD2.0-Olgold)
    [​IMG]

    General
    ID : 16 (0x10)
    Complete name : Beyoncé - Sweet Dreams (MTV BASE HD-1080i-DD2.0-Olgold).ts
    Format : MPEG-TS
    File size : 183 MiB
    Duration : 3mn 56s
    Overall bit rate mode : Variable
    Overall bit rate : 6 466 Kbps

    Video
    ID : 110 (0x6E)
    Menu ID : 8001 (0x1F41)
    Format : AVC
    Format/Info : Advanced Video Codec
    Format profile : High@L4.0
    Format settings, CABAC : Yes
    Format settings, ReFrames : 4 frames
    Format settings, GOP : M=8, N=24
    Codec ID : 27
    Duration : 3mn 56s
    Bit rate : 5 888 Kbps
    Width : 1 920 pixels
    Height : 1 080 pixels
    Display aspect ratio : 16:9
    Frame rate : 25.000 fps
    Standard : Component
    Color space : YUV
    Chroma subsampling : 4:2:0
    Bit depth : 8 bits
    Scan type : MBAFF
    Scan order : Top Field First
    Bits/(Pixel*Frame) : 0.114
    Stream size : 166 MiB (91%)
    Color primaries : BT.709
    Transfer characteristics : BT.709
    Matrix coefficients : BT.709
    Color range : Limited

    Audio
    ID : 121 (0x79)
    Menu ID : 8001 (0x1F41)
    Format : AC-3
    Format/Info : Audio Coding 3
    Mode extension : CM (complete main)
    Format settings, Endianness : Big
    Codec ID : 6
    Duration : 3mn 56s
    Bit rate mode : Constant
    Bit rate : 256 Kbps
    Channel(s) : 2 channels
    Channel positions : Front: L R
    Sampling rate : 48.0 KHz
    Bit depth : 16 bits
    Compression mode : Lossy
    Delay relative to video : 60ms
    Stream size : 7.23 MiB (4%)
    Language : English
    Language, more info : Clean effects

    Credits to Olgold

    SERVER: MEGA / PASSWORD: DETOX

    ***Hidden content cannot be quoted.***
    [/QUOTE]
     
  14. puhat

    puhat New Member

    Joined:
    Dec 26, 2017
    Messages:
    6
    Likes Received:
    0
    thanks
     
  15. VIVAfan1991

    VIVAfan1991 Active Member

    Joined:
    Jan 11, 2018
    Messages:
    646
    Likes Received:
    51
  16. jhonjhondown

    jhonjhondown Member

    Joined:
    Aug 14, 2016
    Messages:
    761
    Likes Received:
    19
  17. curg

    curg Well-Known Member

    Joined:
    Dec 6, 2013
    Messages:
    1,135
    Likes Received:
    36
    thank you
     
  18. Mat123

    Mat123 Member

    Joined:
    Jan 9, 2018
    Messages:
    662
    Likes Received:
    13
    thanks
     
  19. rayyfentyy

    rayyfentyy Member

    Joined:
    Feb 27, 2018
    Messages:
    107
    Likes Received:
    5
    teaaa
     
  20. dyanavic

    dyanavic New Member

    Joined:
    Apr 29, 2018
    Messages:
    6
    Likes Received:
    0