Beyoncé - Sweet Dreams (MTV BASE HD-1080i-DD2.0-Olgold)

Discussion in 'MTV BASE' started by DETOX, Feb 24, 2015.

  1. DETOX

    DETOX I'm so sick of this fake love ♫ ❤️ V . I . P. Uploader

    Joined:
    Feb 20, 2014
    Messages:
    4,597
    Likes Received:
    38,073


    Beyoncé - Sweet Dreams (MTV BASE HD-1080i-DD2.0-Olgold)
    [​IMG]

    General
    ID : 16 (0x10)
    Complete name : Beyoncé - Sweet Dreams (MTV BASE HD-1080i-DD2.0-Olgold).ts
    Format : MPEG-TS
    File size : 183 MiB
    Duration : 3mn 56s
    Overall bit rate mode : Variable
    Overall bit rate : 6 466 Kbps

    Video
    ID : 110 (0x6E)
    Menu ID : 8001 (0x1F41)
    Format : AVC
    Format/Info : Advanced Video Codec
    Format profile : High@L4.0
    Format settings, CABAC : Yes
    Format settings, ReFrames : 4 frames
    Format settings, GOP : M=8, N=24
    Codec ID : 27
    Duration : 3mn 56s
    Bit rate : 5 888 Kbps
    Width : 1 920 pixels
    Height : 1 080 pixels
    Display aspect ratio : 16:9
    Frame rate : 25.000 fps
    Standard : Component
    Color space : YUV
    Chroma subsampling : 4:2:0
    Bit depth : 8 bits
    Scan type : MBAFF
    Scan order : Top Field First
    Bits/(Pixel*Frame) : 0.114
    Stream size : 166 MiB (91%)
    Color primaries : BT.709
    Transfer characteristics : BT.709
    Matrix coefficients : BT.709
    Color range : Limited

    Audio
    ID : 121 (0x79)
    Menu ID : 8001 (0x1F41)
    Format : AC-3
    Format/Info : Audio Coding 3
    Mode extension : CM (complete main)
    Format settings, Endianness : Big
    Codec ID : 6
    Duration : 3mn 56s
    Bit rate mode : Constant
    Bit rate : 256 Kbps
    Channel(s) : 2 channels
    Channel positions : Front: L R
    Sampling rate : 48.0 KHz
    Bit depth : 16 bits
    Compression mode : Lossy
    Delay relative to video : 60ms
    Stream size : 7.23 MiB (4%)
    Language : English
    Language, more info : Clean effects

    Credits to Olgold

    SERVER: MEGA / PASSWORD: DETOX

    Hidden Content:
    You must reply before you can see the hidden data contained here.
     
    Last edited: Mar 3, 2015
    curg, DocLX, rhea and 1 other person like this.
  2. Loading...


  3. rhea

    rhea Well-Known Member

    Joined:
    Jan 6, 2014
    Messages:
    7,665
    Likes Received:
    965
    thank you so much :)
     
  4. Joseph

    Joseph Active Member

    Joined:
    Dec 10, 2013
    Messages:
    751
    Likes Received:
    175
    thank you!
     
  5. kenstafied

    kenstafied Member

    Joined:
    Sep 29, 2014
    Messages:
    104
    Likes Received:
    2
    thank you so much
     
  6. kinhoistheking88

    kinhoistheking88 Member

    Joined:
    Jun 27, 2014
    Messages:
    314
    Likes Received:
    8
  7. brit

    brit Member

    Joined:
    Dec 14, 2013
    Messages:
    286
    Likes Received:
    4
    thank you
     
  8. fernando cabrera

    fernando cabrera Member

    Joined:
    Sep 21, 2014
    Messages:
    147
    Likes Received:
    14
    Thank you
     
  9. mike gunen

    mike gunen Active Member

    Joined:
    Nov 9, 2013
    Messages:
    941
    Likes Received:
    40
    thank you
     
  10. mizdot

    mizdot Well-Known Member

    Joined:
    Nov 13, 2014
    Messages:
    2,479
    Likes Received:
    106
    tnx man
     
  11. Jefferson Archuleta

    Jefferson Archuleta Member

    Joined:
    Mar 23, 2015
    Messages:
    71
    Likes Received:
    6
    thnks
     
  12. Danielcha

    Danielcha Member

    Joined:
    Sep 20, 2014
    Messages:
    153
    Likes Received:
    6
    thanks so much
     
  13. Or-A

    Or-A Member

    Joined:
    Sep 21, 2014
    Messages:
    107
    Likes Received:
    6
    Thank You:)
     
  14. kalo

    kalo Member

    Joined:
    May 25, 2015
    Messages:
    432
    Likes Received:
    16
    thank you
     
  15. Ayrtontito

    Ayrtontito New Member

    Joined:
    Oct 22, 2014
    Messages:
    24
    Likes Received:
    1
    thasksss u
     
  16. Vinny

    Vinny Well-Known Member

    Joined:
    Dec 26, 2013
    Messages:
    3,813
    Likes Received:
    45
    Thanks! ;D
     
  17. ciro93dolls

    ciro93dolls Active Member

    Joined:
    Sep 22, 2014
    Messages:
    149
    Likes Received:
    142
     
  18. Jesus Miguel Rivero

    Jesus Miguel Rivero Member

    Joined:
    Jul 9, 2015
    Messages:
    343
    Likes Received:
    4
    thank you so much
     
  19. Himperios

    Himperios Member

    Joined:
    Oct 11, 2015
    Messages:
    286
    Likes Received:
    18
    good
     
  20. yhkim

    yhkim Active Member

    Joined:
    Nov 19, 2013
    Messages:
    940
    Likes Received:
    12
    thank you so much
     
  21. Regis

    Regis Well-Known Member

    Joined:
    Jul 14, 2015
    Messages:
    1,187
    Likes Received:
    40
    thank you so much :)