HDTV Beyoncé - Sweet Dreams (Intro) & Single Ladies - MTV Video Music Awards 2009 1080i - CtrlHD

Discussion in 'HD Live Performances' started by hanshermann, Apr 12, 2018.

  1. hanshermann

    hanshermann Well-Known Member Uploader

    Joined:
    Aug 24, 2016
    Messages:
    6,951
    Likes Received:
    11,155
    [​IMG]

    Beyoncé - Sweet Dreams (Intro) & Single Ladies - MTV Video Music Awards 2009 1080i - CtrlHD

    Code:
    General
    ID                          : 1 (0x1)
    Complete name               : 06 Beyoncé - Sweet Dreams (Intro) & Single Ladies (Put a Ring on It) - MTV Video Music Awards 2009 1080i HDTV DD5.1 MPEG2-CtrlHD.ts
    Format                      : MPEG-TS
    File size                   : 694 MiB
    Duration                    : 6 min 7 s
    Overall bit rate mode       : Variable
    Overall bit rate            : 15.8 Mb/s
    Law rating                  : TV-14 (DL)
    
    Video
    ID                          : 33 (0x21)
    Menu ID                     : 1 (0x1)
    Format                      : MPEG Video
    Format version              : Version 2
    Format profile              : Main@High
    Format settings, BVOP       : Yes
    Format settings, Matrix     : Custom
    Format settings, GOP        : M=3, N=15
    Format settings, picture st : Frame
    Codec ID                    : 2
    Duration                    : 6 min 6 s
    Bit rate mode               : Variable
    Bit rate                    : 14.7 Mb/s
    Maximum bit rate            : 18.0 Mb/s
    Width                       : 1 920 pixels
    Height                      : 1 080 pixels
    Display aspect ratio        : 16:9
    Frame rate                  : 29.970 (30000/1001) FPS
    Color space                 : YUV
    Chroma subsampling          : 4:2:0
    Bit depth                   : 8 bits
    Scan type                   : Interlaced
    Scan order                  : Top Field First
    Compression mode            : Lossy
    Bits/(Pixel*Frame)          : 0.236
    Time code of first frame    : 01:01:15;15
    Time code source            : Group of pictures header
    GOP, Open/Closed            : Open
    Stream size                 : 642 MiB (93%)
    
    Audio
    ID                          : 36 (0x24)
    Menu ID                     : 1 (0x1)
    Format                      : AC-3
    Format/Info                 : Audio Coding 3
    Format settings, Endianness : Big
    Codec ID                    : 6
    Duration                    : 6 min 7 s
    Bit rate mode               : Constant
    Bit rate                    : 384 kb/s
    Channel(s)                  : 6 channels
    Channel positions           : Front: L C R, Side: L R, LFE
    Sampling rate               : 48.0 kHz
    Frame rate                  : 31.250 FPS (1536 spf)
    Bit depth                   : 16 bits
    Compression mode            : Lossy
    Delay relative to video     : 29 ms
    Stream size                 : 16.8 MiB (2%)
    Language                    : det
    Language, more info         : Clean effects
    Service kind                : Complete Main
    
    Text #1
    ID                          : 33 (0x21)-CC1
    Menu ID                     : 1 (0x1)
    Format                      : EIA-608
    Muxing mode                 : A/53 / DTVCC Transport
    Muxing mode, more info      : Muxed in Video #1
    Duration                    : 6 min 6 s
    Bit rate mode               : Constant
    Stream size                 : 0.00 Byte (0%)
    CaptionServiceName          : CC1
    
    Text #2
    ID                          : 33 (0x21)-1
    Menu ID                     : 1 (0x1)
    Format                      : EIA-708
    Muxing mode                 : A/53 / DTVCC Transport
    Muxing mode, more info      : Muxed in Video #1
    Duration                    : 6 min 6 s
    Bit rate mode               : Constant
    Stream size                 : 0.00 Byte (0%)
    Hidden Content:
    You must either reply or click 'Like' to see the hidden information contained here.
     
    Last edited: Apr 13, 2018
  2. Loading...


  3. miguelmr87

    miguelmr87 Well-Known Member

    Joined:
    Dec 20, 2013
    Messages:
    1,299
    Likes Received:
    291
    thank you & ctrlhd
     
  4. cranman

    cranman Member

    Joined:
    Feb 22, 2017
    Messages:
    225
    Likes Received:
    4
    thanks
     
  5. DtothaLO6

    DtothaLO6 Member

    Joined:
    Aug 13, 2014
    Messages:
    162
    Likes Received:
    8
    THANK YOU!
     
  6. brunolima284

    brunolima284 Member

    Joined:
    May 13, 2017
    Messages:
    360
    Likes Received:
    19
  7. biglovejoy

    biglovejoy Member

    Joined:
    Jan 10, 2018
    Messages:
    777
    Likes Received:
    6
  8. iqson

    iqson Active Member

    Joined:
    Dec 30, 2013
    Messages:
    210
    Likes Received:
    78
    Thanks
     
  9. corpusm2

    corpusm2 Member

    Joined:
    Jun 21, 2017
    Messages:
    111
    Likes Received:
    3
    Thank You
     
  10. mizdot

    mizdot Well-Known Member

    Joined:
    Nov 13, 2014
    Messages:
    2,845
    Likes Received:
    120
    tnx man
     
  11. apl3

    apl3 Well-Known Member

    Joined:
    Jun 11, 2017
    Messages:
    1,117
    Likes Received:
    29
    thanks
     
  12. IWNLYD

    IWNLYD Member

    Joined:
    Feb 28, 2017
    Messages:
    262
    Likes Received:
    4
    Thank You
     
  13. joaopaulobrito

    joaopaulobrito Active Member

    Joined:
    Aug 26, 2016
    Messages:
    110
    Likes Received:
    42
  14. rhea

    rhea Well-Known Member

    Joined:
    Jan 6, 2014
    Messages:
    8,083
    Likes Received:
    1,113
    thank you
     
  15. dhifotoro

    dhifotoro Member

    Joined:
    Oct 22, 2016
    Messages:
    47
    Likes Received:
    3
    tkiuuuuuuu
     
  16. 鄭景文

    鄭景文 Member

    Joined:
    Dec 10, 2017
    Messages:
    300
    Likes Received:
    8
    thank you
     
  17. squallmc

    squallmc Member

    Joined:
    Aug 30, 2016
    Messages:
    119
    Likes Received:
    5
  18. Eslam Abosaed

    Eslam Abosaed Member

    Joined:
    Jan 27, 2015
    Messages:
    327
    Likes Received:
    7
  19. Furanki

    Furanki Member

    Joined:
    Mar 20, 2016
    Messages:
    59
    Likes Received:
    6
    One of the best ever. Thanks a lot!
     
  20. kryza

    kryza Member

    Joined:
    Oct 23, 2013
    Messages:
    673
    Likes Received:
    22
    thank u
     
  21. giacomoisabella1996

    giacomoisabella1996 Member

    Joined:
    Jan 13, 2017
    Messages:
    488
    Likes Received:
    12