SDTV Beyoncé - Single Ladies (Tyra 26.11.08)

Discussion in 'SD Live Performances' started by hanshermann, Nov 15, 2017.

  1. hanshermann

    hanshermann Well-Known Member Uploader

    Joined:
    Aug 24, 2016
    Messages:
    6,951
    Likes Received:
    11,219
    [​IMG]

    Beyoncé - Single Ladies (Tyra 26.11.08)

    General
    Complete name : Beyoncé - Single Ladies (Tyra 26.11.08).vob
    Format : MPEG-PS
    File size : 314 MiB
    Duration : 4 min 27 s
    Overall bit rate mode : Variable
    Overall bit rate : 9 841 kb/s
    Writing library : encoded by TMPGEnc 4.0 XPress Version. 4.6.3.268

    Video
    ID : 224 (0xE0)
    Format : MPEG Video
    Format version : Version 2
    Format profile : Main@Main
    Format settings, BVOP : Yes
    Format settings, Matrix : Custom
    Format settings, GOP : M=3, N=16
    Format settings, picture st : Frame
    Duration : 4 min 27 s
    Bit rate mode : Variable
    Bit rate : 9 261 kb/s
    Maximum bit rate : 9 500 kb/s
    Width : 720 pixels
    Height : 480 pixels
    Display aspect ratio : 4:3
    Frame rate : 29.970 (30000/1001) FPS
    Standard : NTSC
    Color space : YUV
    Chroma subsampling : 4:2:0
    Bit depth : 8 bits
    Scan type : Interlaced
    Scan order : Top Field First
    Compression mode : Lossy
    Bits/(Pixel*Frame) : 0.894
    Time code of first frame : 00:00:00:00
    Time code source : Group of pictures header
    GOP, Open/Closed : Closed
    Stream size : 295 MiB (94%)
    Writing library : TMPGEnc XPress 4.6.3.268
    Color primaries : BT.601 NTSC
    Transfer characteristics : BT.601
    Matrix coefficients : BT.601

    Audio
    ID : 189 (0xBD)-128 (0x80)
    Format : AC-3
    Format/Info : Audio Coding 3
    Format settings, Endianness : Big
    Muxing mode : DVD-Video
    Duration : 4 min 27 s
    Bit rate mode : Constant
    Bit rate : 384 kb/s
    Channel(s) : 2 channels
    Channel positions : Front: L R
    Sampling rate : 48.0 kHz
    Frame rate : 31.250 FPS (1536 spf)
    Bit depth : 16 bits
    Compression mode : Lossy
    Stream size : 12.3 MiB (4%)
    Service kind : Complete Main

    Hidden Content:
    You must either reply or click 'Like' to see the hidden information contained here.
     
    Last edited: Apr 14, 2018
  2. Loading...


  3. TrendMusic

    TrendMusic Well-Known Member

    Joined:
    Oct 7, 2013
    Messages:
    1,710
    Likes Received:
    159
  4. BetaKsi

    BetaKsi Well-Known Member

    Joined:
    Oct 18, 2015
    Messages:
    2,052
    Likes Received:
    561
    Thank you))
     
  5. toonbbv

    toonbbv Well-Known Member

    Joined:
    Dec 11, 2013
    Messages:
    2,205
    Likes Received:
    105
    thank you
     
  6. Saint

    Saint WHY HELLO WORLD?

    Joined:
    Sep 22, 2014
    Messages:
    1,179
    Likes Received:
    129
    Thank yoou <3
     
  7. cranman

    cranman Member

    Joined:
    Feb 22, 2017
    Messages:
    228
    Likes Received:
    4
    thanks
     
  8. Pavulon

    Pavulon Well-Known Member Donor

    Joined:
    Mar 22, 2016
    Messages:
    4,554
    Likes Received:
    963
    thanks
     
  9. JUNINHOSZ

    JUNINHOSZ Well-Known Member

    Joined:
    May 23, 2014
    Messages:
    1,868
    Likes Received:
    58
    yes, thanks!
     
  10. nickgoldsmit

    nickgoldsmit B-Army

    Joined:
    May 3, 2016
    Messages:
    153
    Likes Received:
    9
  11. Maura

    Maura Well-Known Member

    Joined:
    Apr 7, 2014
    Messages:
    3,141
    Likes Received:
    101
    thanks
     
  12. robertjuh

    robertjuh Member

    Joined:
    Dec 26, 2017
    Messages:
    35
    Likes Received:
    0
  13. Mat123

    Mat123 Member

    Joined:
    Jan 9, 2018
    Messages:
    662
    Likes Received:
    13
    thanks
     
  14. maxmax

    maxmax Member

    Joined:
    Jan 11, 2018
    Messages:
    156
    Likes Received:
    3
    thankssssss
     
  15. ARTI

    ARTI Yonce

    Joined:
    May 21, 2017
    Messages:
    346
    Likes Received:
    8
    thanks
     
  16. Rihfiles

    Rihfiles ♫ because it feels good from head to toe ♫

    Joined:
    Feb 13, 2018
    Messages:
    350
    Likes Received:
    7
    thank you
     
  17. voleinahole

    voleinahole Member

    Joined:
    Feb 16, 2017
    Messages:
    67
    Likes Received:
    4
    nice xxxx
     
  18. yoncequality

    yoncequality Member

    Joined:
    Jan 8, 2018
    Messages:
    201
    Likes Received:
    5
    thank you
     
  19. peidofeito

    peidofeito Member

    Joined:
    Sep 4, 2016
    Messages:
    156
    Likes Received:
    2
  20. multimediafm

    multimediafm Well-Known Member Donor

    Joined:
    Mar 27, 2014
    Messages:
    13,143
    Likes Received:
    1,045
  21. carlinhosdoda

    carlinhosdoda Member

    Joined:
    Oct 16, 2016
    Messages:
    113
    Likes Received:
    19