Beyoncé - Jealous (Director's Cut) [1080p]

Discussion in 'PRORES' started by MerlinM, Jan 16, 2016.

  1. MerlinM

    MerlinM Well-Known Member

    Joined:
    Apr 20, 2014
    Messages:
    318
    Likes Received:
    279
    [​IMG]

    Code:
    General
    Complete name                  : Beyoncé - Jealous (Director's Cut) [1080p].mov
    Format                         : MPEG-4
    Format profile                 : QuickTime
    Codec ID                       : qt   2005.03 (qt  )
    File size                      : 1.52 GiB
    Duration                       : 3 min 1 s
    Overall bit rate mode          : Variable
    Overall bit rate               : 72.2 Mb/s
    Encoded date                   : UTC 2014-01-14 17:24:23
    Tagged date                    : UTC 2014-01-14 17:28:58
    Writing library                : Apple QuickTime
    Media/UUID                     : CE1E6191-0F42-4D3D-8D3A-61CAF865D648
    
    Video
    ID                             : 1
    Format                         : ProRes
    Format version                 : Version 0
    Format profile                 : 422 LT
    Codec ID                       : apcs
    Duration                       : 3 min 1 s
    Bit rate mode                  : Variable
    Bit rate                       : 69.8 Mb/s
    Width                          : 1 920 pixels
    Clean aperture width           : 1 888 pixels
    Height                         : 1 080 pixels
    Clean aperture height          : 1 062 pixels
    Display aspect ratio           : 16:9
    Clean aperture display aspect  : 16:9
    Frame rate mode                : Constant
    Frame rate                     : 23.976 (23976/1000) FPS
    Color space                    : YUV
    Chroma subsampling             : 4:2:2
    Scan type                      : Progressive
    Bits/(Pixel*Frame)             : 1.405
    Stream size                    : 1.47 GiB (97%)
    Writing library                : Apple
    Language                       : English
    Encoded date                   : UTC 2014-01-14 17:24:23
    Tagged date                    : UTC 2014-01-14 17:28:58
    Color primaries                : BT.709
    Transfer characteristics       : BT.709
    Matrix coefficients            : BT.709
    
    Audio
    ID                             : 2
    Format                         : PCM
    Format settings                : Little / Signed
    Codec ID                       : in24
    Duration                       : 3 min 1 s
    Bit rate mode                  : Constant
    Bit rate                       : 2 304 kb/s
    Channel(s)                     : 2 channels
    Channel positions              : Front: L R
    Sampling rate                  : 48.0 kHz
    Bit depth                      : 24 bits
    Stream size                    : 49.7 MiB (3%)
    Language                       : English
    Encoded date                   : UTC 2014-01-14 17:24:23
    Tagged date                    : UTC 2014-01-14 17:28:58

    Server: MEGA

    Download:
    Hidden Content:
    You must reply before you can see the hidden data contained here.
     
    Last edited: Mar 14, 2018
  2. Loading...

    Similar Threads
    1. MerlinM
      Replies:
      52
      Views:
      1,697

  3. Snorom6

    Snorom6 Well-Known Member V . I . P. Uploader

    Joined:
    Dec 17, 2015
    Messages:
    4,248
    Likes Received:
    5,621
  4. WFSJ92

    WFSJ92 Member

    Joined:
    Aug 23, 2014
    Messages:
    349
    Likes Received:
    21
    thank you
     
  5. Or-A

    Or-A Member

    Joined:
    Sep 21, 2014
    Messages:
    107
    Likes Received:
    6
    THANK YOU
     
  6. Leonardo7777777

    Leonardo7777777 Member

    Joined:
    Jan 3, 2016
    Messages:
    408
    Likes Received:
    18
    THANK YOU
     
  7. Anggi Edwarsa

    Anggi Edwarsa Active Member

    Joined:
    May 3, 2014
    Messages:
    373
    Likes Received:
    152
    Nice uploader. :)
     
  8. revan1999

    revan1999 New Member

    Joined:
    Jan 27, 2016
    Messages:
    29
    Likes Received:
    0
    thhnnnx
     
  9. Beyonce

    Beyonce Member

    Joined:
    Apr 19, 2014
    Messages:
    78
    Likes Received:
    2
    Thank you very much for the Queen B
     
  10. Winterheart

    Winterheart Member

    Joined:
    Oct 2, 2015
    Messages:
    123
    Likes Received:
    4
    Thank you!!
     
  11. mike gunen

    mike gunen Active Member

    Joined:
    Nov 9, 2013
    Messages:
    922
    Likes Received:
    38
    thank you
     
  12. vnnloser

    vnnloser New Member

    Joined:
    Feb 3, 2016
    Messages:
    20
    Likes Received:
    0
    Thanks!
     
  13. HDcollector

    HDcollector Member

    Joined:
    Dec 15, 2013
    Messages:
    440
    Likes Received:
    7
  14. yhkim

    yhkim Active Member

    Joined:
    Nov 19, 2013
    Messages:
    920
    Likes Received:
    11
    thank you so much
     
  15. stereo1991

    stereo1991 Member

    Joined:
    Oct 21, 2015
    Messages:
    173
    Likes Received:
    1
    thank you
     
  16. dabest

    dabest Member

    Joined:
    Feb 24, 2014
    Messages:
    121
    Likes Received:
    6
    THANK YOU
     
  17. multimediafm

    multimediafm Well-Known Member Donor

    Joined:
    Mar 27, 2014
    Messages:
    11,947
    Likes Received:
    788
    Thanks :)
    Beyoncé - Jealous (Director's Cut) [1080p]
     
  18. alex

    alex Well-Known Member

    Joined:
    Nov 21, 2013
    Messages:
    4,577
    Likes Received:
    380
    Thank you
     
  19. andersonxjunior

    andersonxjunior Active Member

    Joined:
    Feb 26, 2016
    Messages:
    272
    Likes Received:
    109
    THANK YOU SO MUCHHHH!
     
  20. Raptureli

    Raptureli Member

    Joined:
    Aug 11, 2014
    Messages:
    194
    Likes Received:
    1
    thank you!
     
  21. malik_williams

    malik_williams Member

    Joined:
    Apr 3, 2016
    Messages:
    138
    Likes Received:
    20
    th
    thank you