Beyoncé - Irreplaceable (PALLADIA-1080i-DD2.0)

Discussion in 'PALLADIA' started by 777josem, Jun 25, 2015.

  1. 777josem

    777josem ProRes 1080p LPCM V . I . P. Uploader

    Joined:
    Sep 1, 2014
    Messages:
    3,698
    Likes Received:
    2,920
    [​IMG]
    [​IMG]
    [​IMG]
    [​IMG]

    General
    Complete name : E:\beyonce-irreplaceable-hdtv-1080i.mpg
    Format : MPEG-PS
    File size : 526 MiB
    Duration : 4mn 11s
    Overall bit rate mode : Variable
    Overall bit rate : 17.6 Mbps

    Video
    ID : 224 (0xE0)
    Format : MPEG Video
    Format version : Version 2
    Format profile : [email protected]
    Format settings, BVOP : Yes
    Format settings, Matrix : Custom
    Format settings, GOP : Variable
    Format settings, picture st : Frame
    Duration : 4mn 11s
    Bit rate mode : Variable
    Bit rate : 16.8 Mbps
    Maximum bit rate : 32.0 Mbps
    Width : 1 920 pixels
    Height : 1 080 pixels
    Display aspect ratio : 16:9
    Frame rate : 29.970 fps
    Standard : Component
    Color space : YUV
    Chroma subsampling : 4:2:0
    Bit depth : 8 bits
    Scan type : Interlaced
    Scan order : Top Field First
    Compression mode : Lossy
    Bits/(Pixel*Frame) : 0.271
    Time code of first frame : 00:00:00;00
    Time code source : Group of pictures header
    GOP, Open/Closed : Closed
    Stream size : 504 MiB (96%)
    Color primaries : BT.709
    Transfer characteristics : BT.709
    Matrix coefficients : BT.709

    Audio
    ID : 189 (0xBD)-128 (0x80)
    Format : AC-3
    Format/Info : Audio Coding 3
    Mode extension : CM (complete main)
    Format settings, Endianness : Big
    Muxing mode : DVD-Video
    Duration : 4mn 11s
    Bit rate mode : Constant
    Bit rate : 384 Kbps
    Channel(s) : 2 channels
    Channel positions : Front: L R
    Sampling rate : 48.0 KHz
    Bit depth : 16 bits
    Compression mode : Lossy
    Stream size : 11.5 MiB (2%)

    Hidden Content:
    You must reply before you can see the hidden data contained here.
     
  2. Loading...


  3. mike gunen

    mike gunen Active Member

    Joined:
    Nov 9, 2013
    Messages:
    879
    Likes Received:
    31
    thanks dude
     
  4. dgnio

    dgnio Well-Known Member

    Joined:
    Jul 7, 2014
    Messages:
    1,837
    Likes Received:
    437
    thnks very very much!
     
  5. fernando cabrera

    fernando cabrera Member

    Joined:
    Sep 21, 2014
    Messages:
    138
    Likes Received:
    10
     
  6. Dreamer

    Dreamer Lana Del Rey ♥ Halsey Capper V . I . P. Uploader

    Joined:
    Dec 4, 2014
    Messages:
    2,881
    Likes Received:
    4,389
    Thank you
     
  7. Anderson Ferreira

    Anderson Ferreira Member

    Joined:
    Jul 14, 2014
    Messages:
    77
    Likes Received:
    0
  8. Himperios

    Himperios Member

    Joined:
    Oct 11, 2015
    Messages:
    286
    Likes Received:
    18
    Good
     
  9. J_Pablo

    J_Pablo Active Member

    Joined:
    Nov 27, 2013
    Messages:
    523
    Likes Received:
    111
    Great song. thank you
     
  10. Regis

    Regis Well-Known Member

    Joined:
    Jul 14, 2015
    Messages:
    1,139
    Likes Received:
    35
    thnks very very much!
     
  11. Athos

    Athos Active Member

    Joined:
    Dec 28, 2013
    Messages:
    234
    Likes Received:
    111
    Thanks
     
  12. dabest

    dabest Member

    Joined:
    Feb 24, 2014
    Messages:
    118
    Likes Received:
    6
    thank you
     
  13. revilo18

    revilo18 Well-Known Member

    Joined:
    May 26, 2016
    Messages:
    1,875
    Likes Received:
    85
    thankkkk
     
  14. slill

    slill Active Member

    Joined:
    Jul 25, 2014
    Messages:
    1,083
    Likes Received:
    15
    thanks
     
  15. kendoh

    kendoh Member

    Joined:
    Jun 28, 2016
    Messages:
    130
    Likes Received:
    3
    Good stuff!
     
  16. tapions

    tapions Active Member

    Joined:
    Aug 30, 2016
    Messages:
    909
    Likes Received:
    77
    gracias
     
  17. ruan-pn

    ruan-pn New Member

    Joined:
    Sep 22, 2016
    Messages:
    22
    Likes Received:
    1
    thanks
     
  18. rikylouis14

    rikylouis14 Well-Known Member

    Joined:
    Jun 27, 2016
    Messages:
    731
    Likes Received:
    450
  19. arasu123

    arasu123 Member

    Joined:
    Aug 8, 2016
    Messages:
    444
    Likes Received:
    14
    fdsgfdg
     
  20. CristianMatias

    CristianMatias HIGH DEFINITION

    Joined:
    Sep 17, 2016
    Messages:
    827
    Likes Received:
    21
  21. Praveen867

    Praveen867 Member

    Joined:
    Nov 14, 2016
    Messages:
    598
    Likes Received:
    10