Beyoncé - Hold Up VH1HD 1080i HDTV DD2.0 H.264 CELOBRAZiL-HDMania

Discussion in 'VH1 HD' started by CELOBRAZiL, Dec 22, 2016.

  1. CELOBRAZiL

    CELOBRAZiL Well-Known Member Capper V . I . P. Donor

    Joined:
    Oct 2, 2013
    Messages:
    3,786
    Likes Received:
    11,534
    Beyoncé - Hold Up VH1HD 1080i HDTV DD2.0 H.264 CELOBRAZiL-HDMania

    [​IMG]



    Format : MPEG-TS
    File size : 308 MiB
    Duration : 5mn 14s
    Overall bit rate mode : Variable
    Overall bit rate : 8 225 Kbps

    Video
    ID : 5408 (0x1520)
    Menu ID : 1 (0x1)
    Format : AVC
    Format/Info : Advanced Video Codec
    Format profile : [email protected]
    Format settings, CABAC : Yes
    Format settings, ReFrames : 3 frames
    Codec ID : 27
    Duration : 5mn 15s
    Bit rate : 7 431 Kbps
    Width : 1 920 pixels
    Height : 1 080 pixels
    Display aspect ratio : 16:9
    Frame rate : 29.970 fps
    Color space : YUV
    Chroma subsampling : 4:2:0
    Bit depth : 8 bits
    Scan type : MBAFF
    Scan order : Top Field First
    Bits/(Pixel*Frame) : 0.120
    Stream size : 279 MiB (90%)

    Audio
    ID : 5409 (0x1521)
    Menu ID : 1 (0x1)
    Format : AC-3
    Format/Info : Audio Coding 3
    Mode extension : CM (complete main)
    Format settings, Endianness : Big
    Codec ID : 6
    Duration : 5mn 15s
    Bit rate mode : Constant
    Bit rate : 384 Kbps
    Channel(s) : 2 channels
    Channel positions : Front: L R
    Sampling rate : 48.0 KHz
    Bit depth : 16 bits
    Compression mode : Lossy
    Stream size : 14.4 MiB (5%)
    Language : English

    Link(s):
    Hidden Content:
    You must either reply or click 'Like' to see the hidden information contained here.
     
    Last edited: Sep 20, 2017
  2. Loading...


  3. Dreamer

    Dreamer Lana Del Rey ♥ Halsey Capper V . I . P. Uploader

    Joined:
    Dec 4, 2014
    Messages:
    2,810
    Likes Received:
    3,947
    Thank you so much!
     
    CELOBRAZiL likes this.
  4. abdi

    abdi Hi, if you need something feel free to PM me :) V . I . P. Uploader

    Joined:
    Sep 23, 2014
    Messages:
    2,357
    Likes Received:
    9,828
    thank you so much :)
     
    CELOBRAZiL likes this.
  5. Alex17

    Alex17 Member

    Joined:
    Dec 28, 2016
    Messages:
    36
    Likes Received:
    3
    Thanks
     
    CELOBRAZiL likes this.
  6. e132961

    e132961 Member

    Joined:
    Jan 6, 2017
    Messages:
    114
    Likes Received:
    1
    thanks.
     
    CELOBRAZiL likes this.
  7. DiVenturas

    DiVenturas Well-Known Member

    Joined:
    Oct 21, 2015
    Messages:
    2,736
    Likes Received:
    132
    thanks
     
    CELOBRAZiL likes this.
  8. hanshermann

    hanshermann Well-Known Member Uploader

    Joined:
    Aug 24, 2016
    Messages:
    4,702
    Likes Received:
    2,420
    wahts taht
     
  9. brian182

    brian182 Well-Known Member

    Joined:
    Oct 14, 2013
    Messages:
    1,794
    Likes Received:
    72
    thanks! !lol
     
    CELOBRAZiL likes this.