WEB-RiP Beyoncé - Haunted (Live from Mrs. Carter Show World Tour) - X10 M4V FULL HD

Discussion in 'HD Live Performances' started by Marcos Sannin, Apr 18, 2019.

  1. Marcos Sannin

    Marcos Sannin Well-Known Member

    Joined:
    Dec 11, 2014
    Messages:
    1,115
    Likes Received:
    1,374
    [​IMG]

    Complete name : 05 Haunted (Live from Mrs. Carter Show World Tour).m4v
    Format : MPEG-4
    Codec ID : M4V (M4V /mp42/isom)
    File size : 187 MiB
    Duration : 4 min 47 s
    Overall bit rate : 5 456 kb/s
    Movie name : Haunted (Live from Mrs. Carter Show World Tour)
    Track name/Position : 5
    Performer : Beyoncé
    Genre : Pop
    ContentType : Music Video
    Recorded date : UTC 2014-11-24 08:00:00
    Encoded date : UTC 2015-06-01 14:29:45
    Tagged date : UTC 2015-06-01 14:29:45
    Cover : Yes
    Rating : Explicit
    AppleStoreAccount : melinapalermo2@maildu.de
    ownr : Melina Palermo
    AppleStoreCatalogID : 939778316
    AlbumTitleID : 1419227
    GenreID : 1614
    AppleStoreCountry : 143485
    PurchaseDate : 2017-12-16 17:02:41
    Vendor : SonyBMG:vendor_id:886444935265_USSM21401909
    Flavour : 18:1080p
    ContentRating : ||0|

    Video
    ID : 1
    Format : AVC
    Format/Info : Advanced Video Codec
    Format profile : High@L4
    Format settings : CABAC / 4 Ref Frames
    Format settings, CABAC : Yes
    Format settings, ReFrames : 4 frames
    Codec ID : avc1
    Codec ID/Info : Advanced Video Coding
    Duration : 4 min 47 s
    Bit rate : 5 166 kb/s
    Width : 1 920 pixels
    Height : 1 080 pixels
    Display aspect ratio : 16:9
    Frame rate mode : Variable
    Frame rate : 23.976 FPS
    Minimum frame rate : 23.976 FPS
    Maximum frame rate : 24.769 FPS
    Color space : YUV
    Chroma subsampling : 4:2:0
    Bit depth : 8 bits
    Scan type : Progressive
    Bits/(Pixel*Frame) : 0.104
    Stream size : 177 MiB (95%)
    Title : Core Media Video
    Language : English
    Encoded date : UTC 2015-06-01 14:29:45
    Tagged date : UTC 2015-06-01 14:29:45
    Color range : Limited
    Color primaries : BT.709
    Transfer characteristics : BT.709
    Matrix coefficients : BT.709

    Audio
    ID : 2
    Format : AAC
    Format/Info : Advanced Audio Codec
    Format profile : LC
    Codec ID : mp4a-40-2
    Duration : 4 min 47 s
    Source duration : 4 min 47 s
    Bit rate mode : Constant
    Bit rate : 256 kb/s
    Channel(s) : 2 channels
    Channel positions : Front: L R
    Sampling rate : 48.0 kHz
    Frame rate : 46.875 FPS (1024 SPF)
    Compression mode : Lossy
    Stream size : 8.84 MiB (5%)
    Source stream size : 8.84 MiB (5%)
    Title : Core Media Audio
    Language : English
    Encoded date : UTC 2015-06-01 14:29:45
    Tagged date : UTC 2015-06-01 14:29:45

    Google Drive
    Hidden Content:
    You must either reply or click 'Like' to see the hidden information contained here.
     
  2. Loading...


  3. hanshermann

    hanshermann Well-Known Member Uploader

    Joined:
    Aug 24, 2016
    Messages:
    7,822
    Likes Received:
    16,684
    wahts taht
     
  4. digimaze

    digimaze Well-Known Member

    Joined:
    Feb 11, 2015
    Messages:
    2,060
    Likes Received:
    152
    thanks
     
  5. AthiJ

    AthiJ Member

    Joined:
    Oct 30, 2016
    Messages:
    114
    Likes Received:
    4
    Thanks.
     
  6. solita456p

    solita456p Member

    Joined:
    Jun 12, 2018
    Messages:
    142
    Likes Received:
    3
    GRACIAS
     
  7. onika

    onika Member

    Joined:
    Feb 17, 2019
    Messages:
    178
    Likes Received:
    3
    thanks
     
  8. Rega

    Rega Member

    Joined:
    Feb 9, 2017
    Messages:
    135
    Likes Received:
    5
  9. emmanuelquiroga

    emmanuelquiroga Member

    Joined:
    Apr 22, 2019
    Messages:
    194
    Likes Received:
    4
  10. DCunplug

    DCunplug Member

    Joined:
    Oct 11, 2015
    Messages:
    190
    Likes Received:
    7
    Thanks
     
  11. Ayann

    Ayann Member

    Joined:
    Oct 27, 2016
    Messages:
    41
    Likes Received:
    2
    thanks
     
  12. yogo-usa

    yogo-usa Member

    Joined:
    Sep 25, 2016
    Messages:
    204
    Likes Received:
    13
  13. luismoreno

    luismoreno Member

    Joined:
    Jan 23, 2017
    Messages:
    144
    Likes Received:
    4