Beyoncé - Get Me Bodied (MTV BASE HD-1080i-DD2.0-Olgold)

Discussion in 'MTV BASE' started by DETOX, Mar 11, 2015.

  1. DETOX

    DETOX Well-Known Member V . I . P. Uploader

    Joined:
    Feb 20, 2014
    Messages:
    2,593
    Likes Received:
    12,188

    Beyoncé - Get Me Bodied (MTV BASE HD-1080i-DD2.0-Olgold)
    [​IMG]
    General
    ID : 16 (0x10)
    Complete name : Beyoncé - Get Me Bodied (MTV BASE HD-1080i-DD2.0-Olgold).ts
    Format : MPEG-TS
    File size : 456 MiB
    Duration : 6mn 35s
    Overall bit rate mode : Variable
    Overall bit rate : 9 664 Kbps

    Video
    ID : 110 (0x6E)
    Menu ID : 8001 (0x1F41)
    Format : AVC
    Format/Info : Advanced Video Codec
    Format profile : [email protected]
    Format settings, CABAC : Yes
    Format settings, ReFrames : 4 frames
    Codec ID : 27
    Duration : 6mn 35s
    Bit rate : 8 928 Kbps
    Width : 1 920 pixels
    Height : 1 080 pixels
    Display aspect ratio : 16:9
    Frame rate : 25.000 fps
    Standard : Component
    Color space : YUV
    Chroma subsampling : 4:2:0
    Bit depth : 8 bits
    Scan type : MBAFF
    Scan order : Top Field First
    Bits/(Pixel*Frame) : 0.172
    Stream size : 421 MiB (92%)
    Color primaries : BT.709
    Transfer characteristics : BT.709
    Matrix coefficients : BT.709
    Color range : Limited

    Audio
    ID : 121 (0x79)
    Menu ID : 8001 (0x1F41)
    Format : AC-3
    Format/Info : Audio Coding 3
    Mode extension : CM (complete main)
    Format settings, Endianness : Big
    Codec ID : 6
    Duration : 6mn 35s
    Bit rate mode : Constant
    Bit rate : 256 Kbps
    Channel(s) : 2 channels
    Channel positions : Front: L R
    Sampling rate : 48.0 KHz
    Bit depth : 16 bits
    Compression mode : Lossy
    Delay relative to video : 20ms
    Stream size : 12.1 MiB (3%)
    Language : French
    Language, more info : Clean effects

    Credits to Olgold

    SERVER: MEGA / PASSWORD: DETOX
    Hidden Content:
    You must reply before you can see the hidden data contained here.
     
    CELOBRAZiL and rhea like this.
  2. Loading...


  3. rhea

    rhea Well-Known Member

    Joined:
    Jan 6, 2014
    Messages:
    5,193
    Likes Received:
    250
    thank you so much!
     
  4. vivoj

    vivoj Member

    Joined:
    Mar 22, 2014
    Messages:
    43
    Likes Received:
    3
    thanks you
     
  5. dreemo

    dreemo Member

    Joined:
    Mar 13, 2015
    Messages:
    75
    Likes Received:
    1
    nice. thank you
     
  6. Marcos Sannin

    Marcos Sannin Member

    Joined:
    Dec 11, 2014
    Messages:
    157
    Likes Received:
    14
    Drop Drop
     
  7. multimediafm

    multimediafm Well-Known Member Donor

    Joined:
    Mar 27, 2014
    Messages:
    8,058
    Likes Received:
    320
    Thanks :)
    Beyoncé - Get Me Bodied (MTV BASE HD-1080i-DD2.0-Olgold)
     
  8. Albano Salinas

    Albano Salinas Well-Known Member

    Joined:
    Nov 6, 2014
    Messages:
    445
    Likes Received:
    751
    Thank you so much for this!
     
  9. marlyvasconceles

    marlyvasconceles Member

    Joined:
    Sep 7, 2014
    Messages:
    243
    Likes Received:
    2
  10. Vinny

    Vinny Active Member

    Joined:
    Dec 26, 2013
    Messages:
    1,720
    Likes Received:
    7
    Thanks! ;D
     
  11. Puchacz93

    Puchacz93 Well-Known Member

    Joined:
    Feb 4, 2015
    Messages:
    1,204
    Likes Received:
    637
    Thank you.
     
  12. yhkim

    yhkim Active Member

    Joined:
    Nov 19, 2013
    Messages:
    658
    Likes Received:
    6
    thank you so much
     
  13. Regis

    Regis Member

    Joined:
    Jul 14, 2015
    Messages:
    961
    Likes Received:
    23
    Thank you so much for this!
     
  14. Snorom6

    Snorom6 Well-Known Member Uploader

    Joined:
    Dec 17, 2015
    Messages:
    4,246
    Likes Received:
    3,265
  15. akon111

    akon111 Member

    Joined:
    Dec 29, 2015
    Messages:
    167
    Likes Received:
    0
    thanks
     
  16. honiamam

    honiamam Member

    Joined:
    Apr 1, 2016
    Messages:
    156
    Likes Received:
    12
    thank you very much
     
  17. angelm

    angelm Member

    Joined:
    Aug 5, 2016
    Messages:
    169
    Likes Received:
    5
    great
     
  18. wangyuqiang

    wangyuqiang Member

    Joined:
    Jul 21, 2016
    Messages:
    111
    Likes Received:
    2
  19. revilo18

    revilo18 Well-Known Member

    Joined:
    May 26, 2016
    Messages:
    1,298
    Likes Received:
    51
    THANKKK
     
  20. linkopinky

    linkopinky Member

    Joined:
    Aug 13, 2016
    Messages:
    40
    Likes Received:
    1
    thank you
     
  21. linkopinky

    linkopinky Member

    Joined:
    Aug 13, 2016
    Messages:
    40
    Likes Received:
    1
    Thank you!