WEB-RiP Beyoncé - Flawless (Live from Mrs. Carter Show World Tour) - X10 M4V FULL HD

Discussion in 'HD Live Performances' started by Marcos Sannin, Apr 18, 2019.

  1. Marcos Sannin

    Marcos Sannin Well-Known Member

    Joined:
    Dec 11, 2014
    Messages:
    1,132
    Likes Received:
    1,608
    [​IMG]

    Complete name : 02 Flawless (Live from Mrs. Carter Show World Tour).m4v
    Format : MPEG-4
    Codec ID : M4V (M4V /mp42/isom)
    File size : 167 MiB
    Duration : 4 min 11 s
    Overall bit rate : 5 570 kb/s
    Movie name : Flawless (Live from Mrs. Carter Show World Tour)
    Track name/Position : 2
    Performer : Beyoncé
    Genre : Pop
    ContentType : Music Video
    Recorded date : UTC 2014-11-24 08:00:00
    Encoded date : UTC 2015-06-01 14:28:31
    Tagged date : UTC 2015-06-01 14:28:31
    Cover : Yes
    Rating : None
    AppleStoreAccount : melinapalermo2@maildu.de
    ownr : Melina Palermo
    AppleStoreCatalogID : 939778279
    AlbumTitleID : 1419227
    GenreID : 1614
    AppleStoreCountry : 143485
    PurchaseDate : 2017-12-16 17:02:41
    Vendor : SonyBMG:vendor_id:886444935265_USSM21401906
    Flavour : 18:1080p
    ContentRating : ||0|

    Video
    ID : 1
    Format : AVC
    Format/Info : Advanced Video Codec
    Format profile : High@L4
    Format settings : CABAC / 4 Ref Frames
    Format settings, CABAC : Yes
    Format settings, ReFrames : 4 frames
    Codec ID : avc1
    Codec ID/Info : Advanced Video Coding
    Duration : 4 min 11 s
    Bit rate : 5 275 kb/s
    Width : 1 920 pixels
    Height : 1 080 pixels
    Display aspect ratio : 16:9
    Frame rate mode : Variable
    Frame rate : 23.976 FPS
    Minimum frame rate : 23.976 FPS
    Maximum frame rate : 24.975 FPS
    Color space : YUV
    Chroma subsampling : 4:2:0
    Bit depth : 8 bits
    Scan type : Progressive
    Bits/(Pixel*Frame) : 0.106
    Stream size : 158 MiB (95%)
    Title : Core Media Video
    Language : English
    Encoded date : UTC 2015-06-01 14:28:31
    Tagged date : UTC 2015-06-01 14:28:31
    Color range : Limited
    Color primaries : BT.709
    Transfer characteristics : BT.709
    Matrix coefficients : BT.709

    Audio
    ID : 2
    Format : AAC
    Format/Info : Advanced Audio Codec
    Format profile : LC
    Codec ID : mp4a-40-2
    Duration : 4 min 11 s
    Source duration : 4 min 11 s
    Bit rate mode : Constant
    Bit rate : 256 kb/s
    Channel(s) : 2 channels
    Channel positions : Front: L R
    Sampling rate : 48.0 kHz
    Frame rate : 46.875 FPS (1024 SPF)
    Compression mode : Lossy
    Stream size : 7.73 MiB (5%)
    Source stream size : 7.73 MiB (5%)
    Title : Core Media Audio
    Language : English
    Encoded date : UTC 2015-06-01 14:28:31
    Tagged date : UTC 2015-06-01 14:28:31

    Google Drive
    Hidden Content:
    You must either reply or click 'Like' to see the hidden information contained here.
     
  2. Loading...


  3. hanshermann

    hanshermann Well-Known Member Uploader

    Joined:
    Aug 24, 2016
    Messages:
    7,827
    Likes Received:
    18,117
    wahts taht
     
  4. digimaze

    digimaze Well-Known Member

    Joined:
    Feb 11, 2015
    Messages:
    2,142
    Likes Received:
    173
    thanks
     
  5. AthiJ

    AthiJ Member

    Joined:
    Oct 30, 2016
    Messages:
    128
    Likes Received:
    7
    Thanks.
     
  6. BetaKsi

    BetaKsi Well-Known Member

    Joined:
    Oct 18, 2015
    Messages:
    2,911
    Likes Received:
    707
    Thank you))
     
  7. solita456p

    solita456p Member

    Joined:
    Jun 12, 2018
    Messages:
    142
    Likes Received:
    3
    gracias
     
  8. Rega

    Rega Member

    Joined:
    Feb 9, 2017
    Messages:
    142
    Likes Received:
    5
  9. DCunplug

    DCunplug Member

    Joined:
    Oct 11, 2015
    Messages:
    199
    Likes Received:
    7
    Thanks
     
  10. carlo4444

    carlo4444 Member

    Joined:
    Aug 6, 2018
    Messages:
    290
    Likes Received:
    15
    thanks
     
  11. chiraqminaj

    chiraqminaj Member

    Joined:
    Feb 20, 2019
    Messages:
    73
    Likes Received:
    2
    thanks
     
  12. nicholas souza

    nicholas souza Member

    Joined:
    Mar 2, 2019
    Messages:
    98
    Likes Received:
    0
  13. Lisa-20112011

    Lisa-20112011 Well-Known Member

    Joined:
    Jun 25, 2018
    Messages:
    1,380
    Likes Received:
    30
  14. Ayann

    Ayann Member

    Joined:
    Oct 27, 2016
    Messages:
    45
    Likes Received:
    2
    thx!!!
     
  15. luismoreno

    luismoreno Member

    Joined:
    Jan 23, 2017
    Messages:
    163
    Likes Received:
    4
    thank you
     
  16. yonceonhismouth

    yonceonhismouth Member

    Joined:
    May 18, 2019
    Messages:
    101
    Likes Received:
    2
  17. Corwin Edrian

    Corwin Edrian Corsu

    Joined:
    Dec 26, 2017
    Messages:
    292
    Likes Received:
    7
  18. rocoberto

    rocoberto Well-Known Member

    Joined:
    Jul 13, 2019
    Messages:
    1,428
    Likes Received:
    34
    muack merci