Beyoncé featuring Lady Gaga - Video Phone (Original Edit) HD 1080p Unttaged

Discussion in 'Music Videos' started by Marcos Sannin, Apr 15, 2019 at 11:06 AM.

  1. Marcos Sannin

    Marcos Sannin Well-Known Member

    Joined:
    Dec 11, 2014
    Messages:
    1,109
    Likes Received:
    1,120
    [​IMG]

    Complete name : Beyoncé featuring Lady Gaga - Video Phone (Original Edit).mp4
    Format : MPEG-4
    Format profile : Base Media / Version 2
    Codec ID : mp42 (ndhd/avc1/mp42/isom)
    File size : 393 MiB
    Duration : 3 min 36 s
    Overall bit rate mode : Variable
    Overall bit rate : 15.2 Mb/s
    Encoded date : UTC 2019-04-15 14:28:09
    Tagged date : UTC 2019-04-15 14:53:14

    Video
    ID : 1
    Format : AVC
    Format/Info : Advanced Video Codec
    Format profile : Baseline@L4.2
    Format settings : 1 Ref Frames
    Format settings, CABAC : No
    Format settings, ReFrames : 1 frame
    Codec ID : avc1
    Codec ID/Info : Advanced Video Coding
    Duration : 3 min 36 s
    Bit rate mode : Variable
    Bit rate : 15.1 Mb/s
    Maximum bit rate : 40.0 Mb/s
    Width : 1 920 pixels
    Height : 1 088 pixels
    Display aspect ratio : 16:9
    Frame rate mode : Constant
    Frame rate : 50.000 FPS
    Color space : YUV
    Chroma subsampling : 4:2:0
    Bit depth : 8 bits
    Scan type : Progressive
    Bits/(Pixel*Frame) : 0.144
    Stream size : 390 MiB (99%)
    Language : English
    Encoded date : UTC 2019-04-15 14:28:12
    Tagged date : UTC 2019-04-15 14:53:14
    Codec configuration box : avcC

    Audio
    ID : 2
    Format : AAC LC
    Format/Info : Advanced Audio Codec Low Complexity
    Codec ID : mp4a-40-2
    Duration : 3 min 36 s
    Bit rate mode : Variable
    Bit rate : 124 kb/s
    Maximum bit rate : 135 kb/s
    Channel(s) : 2 channels
    Channel layout : L R
    Sampling rate : 48.0 kHz
    Frame rate : 46.875 FPS (1024 SPF)
    Compression mode : Lossy
    Stream size : 3.21 MiB (1%)
    Language : English
    Encoded date : UTC 2019-04-15 14:28:10
    Tagged date : UTC 2019-04-15 14:53:14

    Google Drive
    Hidden Content:
    You must either reply or click 'Like' to see the hidden information contained here.
     
  2. Loading...


  3. Pedro Correia

    Pedro Correia Well-Known Member

    Joined:
    Apr 17, 2014
    Messages:
    1,768
    Likes Received:
    187
    Thank you so much!
     
  4. XaiDor

    XaiDor Member

    Joined:
    Sep 22, 2016
    Messages:
    123
    Likes Received:
    5
  5. thankstome

    thankstome Well-Known Member

    Joined:
    Feb 6, 2014
    Messages:
    1,103
    Likes Received:
    1,467
  6. perfectillusion

    perfectillusion Active Member

    Joined:
    Sep 11, 2016
    Messages:
    210
    Likes Received:
    25
  7. dimrous22

    dimrous22 Well-Known Member

    Joined:
    Sep 11, 2016
    Messages:
    1,008
    Likes Received:
    62
  8. kakaaws

    kakaaws Member

    Joined:
    Jan 7, 2017
    Messages:
    283
    Likes Received:
    21
    thank youuuuuuuuu
     
  9. John Wayne

    John Wayne Member

    Joined:
    Dec 13, 2017
    Messages:
    68
    Likes Received:
    3
    thank you
     
  10. MigaLouka

    MigaLouka Member

    Joined:
    Jan 5, 2018
    Messages:
    251
    Likes Received:
    21
  11. MigaLouka

    MigaLouka Member

    Joined:
    Jan 5, 2018
    Messages:
    251
    Likes Received:
    21
  12. mostafa1992

    mostafa1992 Active Member

    Joined:
    Dec 24, 2014
    Messages:
    119
    Likes Received:
    41
    THANK YOU
     
  13. Dave

    Dave Well-Known Member

    Joined:
    Jun 2, 2015
    Messages:
    2,104
    Likes Received:
    1,213
  14. warllen

    warllen Member

    Joined:
    Feb 25, 2019
    Messages:
    303
    Likes Received:
    2
  15. ecrider1000

    ecrider1000 Member

    Joined:
    Jun 25, 2016
    Messages:
    517
    Likes Received:
    22
  16. marcovieirabh

    marcovieirabh Active Member

    Joined:
    May 22, 2017
    Messages:
    810
    Likes Received:
    37
    thanks
     
  17. rudolfwhite

    rudolfwhite Member

    Joined:
    Nov 27, 2014
    Messages:
    179
    Likes Received:
    9
  18. Dig

    Dig Active Member

    Joined:
    Jun 25, 2016
    Messages:
    381
    Likes Received:
    113
  19. johnwayne

    johnwayne Active Member

    Joined:
    Nov 1, 2016
    Messages:
    176
    Likes Received:
    197
  20. Vero91

    Vero91 Active Member

    Joined:
    Mar 19, 2015
    Messages:
    411
    Likes Received:
    73
  21. butoko

    butoko New Member

    Joined:
    Apr 9, 2019
    Messages:
    4
    Likes Received:
    0