Beyoncé Feat. Shakira - Beautiful Liar (VH1HD-1080i-DD2.0-CELOBRAZiL)-HDMania

Discussion in 'VH1 HD' started by DETOX, Jan 16, 2016.

  1. DETOX

    DETOX K-POP fan ♡ VIXX▾T-ARA▾17▾WANNA ONE▾BTS▾SHINee...♡ V . I . P. Uploader

    Joined:
    Feb 20, 2014
    Messages:
    3,535
    Likes Received:
    25,241
    [​IMG]
    Code:
    General
    ID                                       : 1 (0x1)
    Complete name                            : Beyoncé Feat. Shakira - Beautiful Liar (VH1HD-1080i-DD2.0-CELOBRAZiIL)-HDMania.ts
    Format                                   : MPEG-TS
    File size                                : 224 MiB
    Duration                                 : 3mn 26s
    Overall bit rate mode                    : Variable
    Overall bit rate                         : 9 094 Kbps
    
    Video
    ID                                       : 5408 (0x1520)
    Menu ID                                  : 1 (0x1)
    Format                                   : AVC
    Format/Info                              : Advanced Video Codec
    Format profile                           : [email protected]
    Format settings, CABAC                   : Yes
    Format settings, ReFrames                : 2 frames
    Codec ID                                 : 27
    Duration                                 : 3mn 26s
    Bit rate                                 : 8 257 Kbps
    Width                                    : 1 920 pixels
    Height                                   : 1 080 pixels
    Display aspect ratio                     : 16:9
    Frame rate                               : 29.970 fps
    Color space                              : YUV
    Chroma subsampling                       : 4:2:0
    Bit depth                                : 8 bits
    Scan type                                : MBAFF
    Scan order                               : Top Field First
    Bits/(Pixel*Frame)                       : 0.133
    Stream size                              : 203 MiB (91%)
    Color range                              : Limited
    Color primaries                          : BT.709
    Transfer characteristics                 : BT.709
    Matrix coefficients                      : BT.709
    
    Audio
    ID                                       : 5410 (0x1522)
    Menu ID                                  : 1 (0x1)
    Format                                   : AC-3
    Format/Info                              : Audio Coding 3
    Mode extension                           : CM (complete main)
    Format settings, Endianness              : Big
    Codec ID                                 : 129
    Duration                                 : 3mn 26s
    Bit rate mode                            : Constant
    Bit rate                                 : 384 Kbps
    Channel(s)                               : 2 channels
    Channel positions                        : Front: L R
    Sampling rate                            : 48.0 KHz
    Bit depth                                : 16 bits
    Compression mode                         : Lossy
    Stream size                              : 9.46 MiB (4%)
    Language                                 : English
    Server: cloud.mail.ru
    Hidden Content:
    You must reply before you can see the hidden data contained here.
     
  2. Loading...


  3. Snorom6

    Snorom6 Well-Known Member V . I . P. Uploader

    Joined:
    Dec 17, 2015
    Messages:
    4,248
    Likes Received:
    5,043
  4. Chris Sooz

    Chris Sooz Member

    Joined:
    Jan 13, 2016
    Messages:
    247
    Likes Received:
    3
    Thank you!
     
  5. Colby

    Colby Member

    Joined:
    Oct 31, 2015
    Messages:
    125
    Likes Received:
    1
    thank you!:D
     
  6. mina

    mina Member

    Joined:
    Nov 24, 2015
    Messages:
    48
    Likes Received:
    1
    thanks good
     
  7. ramazanedvard

    ramazanedvard New Member

    Joined:
    Jan 14, 2016
    Messages:
    25
    Likes Received:
    0
  8. Attention

    Attention Active Member

    Joined:
    Nov 30, 2013
    Messages:
    563
    Likes Received:
    31
    Danke schön
     
  9. 江雨燃双鱼

    江雨燃双鱼 Active Member

    Joined:
    Apr 5, 2014
    Messages:
    613
    Likes Received:
    38
    thanks good
     
  10. sideshow_bob

    sideshow_bob Well-Known Member

    Joined:
    Dec 20, 2013
    Messages:
    2,951
    Likes Received:
    181
    nice one!
     
  11. useradsl768

    useradsl768 New Member

    Joined:
    Feb 29, 2016
    Messages:
    8
    Likes Received:
    3
    tnx tnx
     
  12. ScherzyBoy

    ScherzyBoy NicoleScherzy, KingofPop & HarryPotter fan V . I . P. Uploader

    Joined:
    May 14, 2015
    Messages:
    1,068
    Likes Received:
    914
    Thanx a lot
     
  13. Shaki

    Shaki Member

    Joined:
    Mar 13, 2016
    Messages:
    280
    Likes Received:
    1
    love you
     
  14. kenstafied

    kenstafied Member

    Joined:
    Sep 29, 2014
    Messages:
    101
    Likes Received:
    2
    thank you very much
     
  15. monster

    monster Well-Known Member

    Joined:
    Mar 17, 2016
    Messages:
    359
    Likes Received:
    486
    thanks
     
  16. juliencrg

    juliencrg New Member

    Joined:
    Mar 15, 2016
    Messages:
    19
    Likes Received:
    0
  17. TrendMusic

    TrendMusic Well-Known Member

    Joined:
    Oct 7, 2013
    Messages:
    1,377
    Likes Received:
    103
  18. Jrec

    Jrec Active Member

    Joined:
    May 11, 2016
    Messages:
    652
    Likes Received:
    32
    Thanks
     
  19. saws9

    saws9 Member

    Joined:
    Feb 16, 2016
    Messages:
    39
    Likes Received:
    3
    thanks
     
  20. misstiss

    misstiss Member

    Joined:
    Apr 24, 2014
    Messages:
    97
    Likes Received:
    7
    thanks a lot
     
  21. serenity1203

    serenity1203 Member

    Joined:
    Sep 30, 2016
    Messages:
    61
    Likes Received:
    3
    yazzzzzzzzzzzz