Beyoncé Feat. Sean Paul - Baby Boy (VH1HD-1080i-DD2.0-CELOBRAZiIL)-HDMania

Discussion in 'VH1 HD' started by Snorom6, Jun 7, 2016.

  1. Snorom6

    Snorom6 Well-Known Member Uploader

    Joined:
    Dec 17, 2015
    Messages:
    4,242
    Likes Received:
    4,591
    Beyoncé Feat. Sean Paul - Baby Boy (VH1HD-1080i-DD2.0-CELOBRAZiIL)-HDMania


    [​IMG]


    Code:
    General
    ID                             : 1 (0x1)
    Complete name                  : Beyoncé Feat. Sean Paul - Baby Boy (VH1HD-1080i-DD2.0-CELOBRAZiIL)-HDMania.ts
    Format                         : MPEG-TS
    File size                      : 272 MiB
    Duration                       : 4mn 8s
    Overall bit rate mode          : Variable
    Overall bit rate               : 9 165 Kbps
    
    Video
    ID                             : 5408 (0x1520)
    Menu ID                        : 1 (0x1)
    Format                         : AVC
    Format/Info                    : Advanced Video Codec
    Format profile                 : [email protected]
    Format settings, CABAC         : Yes
    Format settings, ReFrames      : 2 frames
    Codec ID                       : 27
    Duration                       : 4mn 8s
    Bit rate                       : 8 324 Kbps
    Width                          : 1 920 pixels
    Height                         : 1 080 pixels
    Display aspect ratio           : 16:9
    Frame rate                     : 29.970 fps
    Color space                    : YUV
    Chroma subsampling             : 4:2:0
    Bit depth                      : 8 bits
    Scan type                      : MBAFF
    Scan order                     : Top Field First
    Bits/(Pixel*Frame)             : 0.134
    Stream size                    : 247 MiB (91%)
    Color range                    : Limited
    Color primaries                : BT.709
    Transfer characteristics       : BT.709
    Matrix coefficients            : BT.709
    
    Audio
    ID                             : 5409 (0x1521)
    Menu ID                        : 1 (0x1)
    Format                         : AC-3
    Format/Info                    : Audio Coding 3
    Mode extension                 : CM (complete main)
    Format settings, Endianness    : Big
    Codec ID                       : 129
    Duration                       : 4mn 8s
    Bit rate mode                  : Constant
    Bit rate                       : 384 Kbps
    Channel(s)                     : 2 channels
    Channel positions              : Front: L R
    Sampling rate                  : 48.0 KHz
    Compression mode               : Lossy
    Stream size                    : 11.4 MiB (4%)
    Language                       : English
    
    

    Hidden Content:
    You must either reply or click 'Like' to see the hidden information contained here.
    Hidden Content:
    You must either reply or click 'Like' to see the hidden information contained here.
     
  2. Loading...


  3. maurohachen

    maurohachen Member

    Joined:
    Feb 24, 2015
    Messages:
    402
    Likes Received:
    18
    full screen?
     
    Snorom6 likes this.
  4. rus31

    rus31 Member

    Joined:
    May 20, 2016
    Messages:
    210
    Likes Received:
    13
    thanks
     
    Snorom6 likes this.
  5. Attention

    Attention Active Member

    Joined:
    Nov 30, 2013
    Messages:
    563
    Likes Received:
    30
    Thanks!!!
     
    Snorom6 likes this.
  6. Jopie1234

    Jopie1234 New Member

    Joined:
    Sep 29, 2016
    Messages:
    9
    Likes Received:
    3
    Thanks
     
    Snorom6 likes this.
  7. carlinhosdoda

    carlinhosdoda Member

    Joined:
    Oct 16, 2016
    Messages:
    67
    Likes Received:
    6
    Thanks
     
    Snorom6 likes this.
  8. Praveen867

    Praveen867 Member

    Joined:
    Nov 14, 2016
    Messages:
    529
    Likes Received:
    3
    YFTTTTTT
     
  9. mcslimshady

    mcslimshady Active Member

    Joined:
    Jun 20, 2016
    Messages:
    1,058
    Likes Received:
    19
  10. video60fps

    video60fps Member

    Joined:
    Nov 3, 2016
    Messages:
    63
    Likes Received:
    0
    hello
     
  11. Grande44

    Grande44 Member

    Joined:
    Jul 19, 2016
    Messages:
    176
    Likes Received:
    3
    Thanks!!!!!!!!!!!!!!!!!!!!!!!
     
  12. whyusomadxx

    whyusomadxx Member

    Joined:
    Sep 2, 2016
    Messages:
    34
    Likes Received:
    2
  13. sialan

    sialan Member

    Joined:
    Jan 5, 2017
    Messages:
    56
    Likes Received:
    0
    thanks
     
  14. RE4PER

    RE4PER Member

    Joined:
    Dec 23, 2016
    Messages:
    121
    Likes Received:
    0
    Thanks
     
  15. Carlos

    Carlos Active Member

    Joined:
    May 4, 2014
    Messages:
    560
    Likes Received:
    45
    thanks
     
  16. brian182

    brian182 Well-Known Member

    Joined:
    Oct 14, 2013
    Messages:
    1,750
    Likes Received:
    62
    THANKS FOR BEY
     
  17. rikstar

    rikstar Member

    Joined:
    Dec 3, 2015
    Messages:
    161
    Likes Received:
    3
    thank you
     
  18. gforti

    gforti Member

    Joined:
    Sep 2, 2016
    Messages:
    39
    Likes Received:
    2
    omg thanks
     
  19. faz

    faz Member

    Joined:
    Jan 9, 2014
    Messages:
    269
    Likes Received:
    2
    thanks
     
  20. DiVenturas

    DiVenturas Well-Known Member

    Joined:
    Oct 21, 2015
    Messages:
    2,535
    Likes Received:
    87
  21. hanshermann

    hanshermann Well-Known Member

    Joined:
    Aug 24, 2016
    Messages:
    4,164
    Likes Received:
    942
    wahts taht