Beyoncé Feat. Sean Paul - Baby Boy (MHD-1080i-DD2.0) [Palladia]

Discussion in 'PALLADIA' started by 777josem, Jun 25, 2015.

  1. 777josem

    777josem ProRes 1080p LPCM V . I . P. Uploader

    Joined:
    Sep 1, 2014
    Messages:
    3,569
    Likes Received:
    2,735
    [​IMG]
    [​IMG]
    [​IMG]
    [​IMG]

    General
    ID : 1 (0x1)
    Complete name : E:\Beyoncé Feat. Sean Paul - Baby Boy (PALLADIA-1080i-DD2.0).ts
    Format : MPEG-TS
    File size : 533 MiB
    Duration : 4mn 8s
    Overall bit rate mode : Variable
    Overall bit rate : 18.0 Mbps
    Law rating : TV-PG (L)

    Video
    ID : 2048 (0x800)
    Menu ID : 1 (0x1)
    Format : MPEG Video
    Format version : Version 2
    Format profile : [email protected]
    Format settings, BVOP : Yes
    Format settings, Matrix : Custom
    Format settings, GOP : Variable
    Format settings, picture st : Frame
    Codec ID : 2
    Duration : 4mn 8s
    Bit rate mode : Variable
    Bit rate : 16.7 Mbps
    Maximum bit rate : 38.8 Mbps
    Width : 1 920 pixels
    Height : 1 080 pixels
    Display aspect ratio : 16:9
    Frame rate : 29.970 fps
    Standard : Component
    Color space : YUV
    Chroma subsampling : 4:2:0
    Bit depth : 8 bits
    Scan type : Interlaced
    Scan order : Top Field First
    Compression mode : Lossy
    Bits/(Pixel*Frame) : 0.269
    Time code of first frame : 00:00:00:00
    Time code source : Group of pictures header
    Stream size : 495 MiB (93%)
    Color primaries : BT.709
    Transfer characteristics : BT.709
    Matrix coefficients : BT.709

    Audio
    ID : 2049 (0x801)
    Menu ID : 1 (0x1)
    Format : AC-3
    Format/Info : Audio Coding 3
    Mode extension : CM (complete main)
    Format settings, Endianness : Big
    Codec ID : 129
    Duration : 4mn 8s
    Bit rate mode : Constant
    Bit rate : 384 Kbps
    Channel(s) : 2 channels
    Channel positions : Front: L R
    Sampling rate : 48.0 KHz
    Bit depth : 16 bits
    Compression mode : Lossy
    Stream size : 11.4 MiB (2%)

    Text #1
    ID : 2048 (0x800)-CC1
    Menu ID : 1 (0x1)
    Format : EIA-608
    Muxing mode : A/53 / DTVCC Transport
    Muxing mode, more info : Muxed in Video #1
    Duration : 4mn 8s
    Bit rate mode : Constant
    Stream size : 0.00 Byte (0%)

    Text #2
    ID : 2048 (0x800)-1
    Menu ID : 1 (0x1)
    Format : EIA-708
    Muxing mode : A/53 / DTVCC Transport
    Muxing mode, more info : Muxed in Video #1
    Duration : 4mn 8s
    Bit rate mode : Constant
    Stream size : 0.00 Byte (0%)

    Hidden Content:
    You must reply before you can see the hidden data contained here.
     
  2. Loading...


  3. mike gunen

    mike gunen Active Member

    Joined:
    Nov 9, 2013
    Messages:
    849
    Likes Received:
    25
    thank you dude
     
  4. atakano

    atakano Member

    Joined:
    Oct 6, 2014
    Messages:
    224
    Likes Received:
    3
    thanks for video
     
  5. alan

    alan Member

    Joined:
    Jun 27, 2015
    Messages:
    353
    Likes Received:
    10
    thanks you
     
  6. fernando cabrera

    fernando cabrera Member

    Joined:
    Sep 21, 2014
    Messages:
    135
    Likes Received:
    6
     
  7. Puchacz93

    Puchacz93 Well-Known Member

    Joined:
    Feb 4, 2015
    Messages:
    1,210
    Likes Received:
    721
    Thank you.
     
  8. Jesus Miguel Rivero

    Jesus Miguel Rivero Member

    Joined:
    Jul 9, 2015
    Messages:
    285
    Likes Received:
    4
    thank you so much
     
  9. shopangle20

    shopangle20 Member

    Joined:
    Sep 30, 2015
    Messages:
    122
    Likes Received:
    7
    THANK YOU
     
  10. Anderson Ferreira

    Anderson Ferreira Member

    Joined:
    Jul 14, 2014
    Messages:
    73
    Likes Received:
    0
    obrigado :d
     
  11. yhnujm1

    yhnujm1 Member

    Joined:
    Jun 26, 2014
    Messages:
    343
    Likes Received:
    5
    thank you
     
  12. Himperios

    Himperios Member

    Joined:
    Oct 11, 2015
    Messages:
    286
    Likes Received:
    18
    good
     
  13. Regis

    Regis Well-Known Member

    Joined:
    Jul 14, 2015
    Messages:
    1,072
    Likes Received:
    26
    thanks you
     
  14. Regis

    Regis Well-Known Member

    Joined:
    Jul 14, 2015
    Messages:
    1,072
    Likes Received:
    26
    thank you dude
     
  15. Athos

    Athos Active Member

    Joined:
    Dec 28, 2013
    Messages:
    228
    Likes Received:
    102
    Thank you
     
  16. hardcoregamer40

    hardcoregamer40 Member

    Joined:
    May 9, 2016
    Messages:
    86
    Likes Received:
    6
    yes thankyou
     
  17. king_zyan

    king_zyan Member

    Joined:
    Oct 28, 2015
    Messages:
    111
    Likes Received:
    4
  18. dzenailyjohn

    dzenailyjohn Member

    Joined:
    Oct 21, 2015
    Messages:
    180
    Likes Received:
    9
    thanks you
     
  19. revilo18

    revilo18 Well-Known Member

    Joined:
    May 26, 2016
    Messages:
    1,851
    Likes Received:
    83
    thankkk
     
  20. tsimien

    tsimien Member

    Joined:
    Dec 22, 2015
    Messages:
    44
    Likes Received:
    0
    thanks!
     
  21. enzogyn

    enzogyn Member

    Joined:
    Dec 2, 2015
    Messages:
    281
    Likes Received:
    37
    t
    tnx so much