Beyoncé (feat. Jay-Z) - Upgrade U (MTV BASE HD-1080i-DD2.0-Olgold)

Discussion in 'MTV BASE' started by DETOX, Feb 24, 2015.

  1. DETOX

    DETOX Well-Known Member V . I . P. Uploader

    Joined:
    Feb 20, 2014
    Messages:
    2,788
    Likes Received:
    15,718

    Beyoncé (feat. Jay-Z) - Upgrade U (MTV BASE HD-1080i-DD2.0-Olgold)
    [​IMG]

    General
    ID : 16 (0x10)
    Complete name : Beyoncé (feat. Jay-Z) - Upgrade U (MTV BASE HD-1080i-DD2.0-Olgold).ts
    Format : MPEG-TS
    File size : 240 MiB
    Duration : 3mn 23s
    Overall bit rate mode : Variable
    Overall bit rate : 9 867 Kbps

    Video
    ID : 110 (0x6E)
    Menu ID : 8001 (0x1F41)
    Format : AVC
    Format/Info : Advanced Video Codec
    Format profile : [email protected]
    Format settings, CABAC : Yes
    Format settings, ReFrames : 4 frames
    Codec ID : 27
    Duration : 3mn 23s
    Bit rate : 9 121 Kbps
    Width : 1 920 pixels
    Height : 1 080 pixels
    Display aspect ratio : 16:9
    Frame rate : 25.000 fps
    Standard : Component
    Color space : YUV
    Chroma subsampling : 4:2:0
    Bit depth : 8 bits
    Scan type : MBAFF
    Scan order : Top Field First
    Bits/(Pixel*Frame) : 0.176
    Stream size : 221 MiB (92%)
    Color primaries : BT.709
    Transfer characteristics : BT.709
    Matrix coefficients : BT.709
    Color range : Limited

    Audio
    ID : 121 (0x79)
    Menu ID : 8001 (0x1F41)
    Format : AC-3
    Format/Info : Audio Coding 3
    Mode extension : CM (complete main)
    Format settings, Endianness : Big
    Codec ID : 6
    Duration : 3mn 23s
    Bit rate mode : Constant
    Bit rate : 256 Kbps
    Channel(s) : 2 channels
    Channel positions : Front: L R
    Sampling rate : 48.0 KHz
    Bit depth : 16 bits
    Compression mode : Lossy
    Delay relative to video : 100ms
    Stream size : 6.21 MiB (3%)
    Language : English
    Language, more info : Clean effects

    Credits to Olgold

    SERVER: MEGA / PASSWORD: DETOX
    Hidden Content:
    You must reply before you can see the hidden data contained here.
     
    Last edited: Mar 11, 2015
    vivoj, lebartt, rhea and 1 other person like this.
  2. Loading...


  3. rhea

    rhea Well-Known Member

    Joined:
    Jan 6, 2014
    Messages:
    5,577
    Likes Received:
    338
    thank you so much :)
     
  4. fernando cabrera

    fernando cabrera Member

    Joined:
    Sep 21, 2014
    Messages:
    116
    Likes Received:
    2
    Thanx so much!
     
  5. mike gunen

    mike gunen Member

    Joined:
    Nov 9, 2013
    Messages:
    694
    Likes Received:
    13
    Thank you
     
  6. Chris

    Chris Member

    Joined:
    Oct 19, 2013
    Messages:
    528
    Likes Received:
    16
    Thank you
     
  7. Danielcha

    Danielcha Member

    Joined:
    Sep 20, 2014
    Messages:
    74
    Likes Received:
    0
    thanks so much
     
  8. andersom.bk

    andersom.bk Member

    Joined:
    Jul 11, 2014
    Messages:
    128
    Likes Received:
    5
    OBRIGADO POR COMPARTILHAR
     
  9. vivoj

    vivoj Member

    Joined:
    Mar 22, 2014
    Messages:
    45
    Likes Received:
    3
    thanks you
     
  10. marlyvasconceles

    marlyvasconceles Member

    Joined:
    Sep 7, 2014
    Messages:
    243
    Likes Received:
    2
  11. Vinny

    Vinny Active Member

    Joined:
    Dec 26, 2013
    Messages:
    1,857
    Likes Received:
    8
    Thanks! ;D
     
  12. yhkim

    yhkim Active Member

    Joined:
    Nov 19, 2013
    Messages:
    699
    Likes Received:
    6
    thank you so much
     
  13. STONECOLD2020

    STONECOLD2020 Member

    Joined:
    Nov 6, 2015
    Messages:
    204
    Likes Received:
    14
    thank you so much
     
  14. Regis

    Regis Well-Known Member

    Joined:
    Jul 14, 2015
    Messages:
    1,004
    Likes Received:
    25
    Thank you
     
  15. cactusman

    cactusman New Member

    Joined:
    May 3, 2016
    Messages:
    3
    Likes Received:
    0
  16. honiamam

    honiamam Member

    Joined:
    Apr 1, 2016
    Messages:
    161
    Likes Received:
    12
    thank you a lot
     
  17. honiamam

    honiamam Member

    Joined:
    Apr 1, 2016
    Messages:
    161
    Likes Received:
    12
    thanks a lot
     
  18. hardcoregamer40

    hardcoregamer40 Member

    Joined:
    May 9, 2016
    Messages:
    86
    Likes Received:
    5
    amazing
     
  19. mcslimshady

    mcslimshady Member

    Joined:
    Jun 20, 2016
    Messages:
    833
    Likes Received:
    12
  20. zuluka

    zuluka Member

    Joined:
    Jul 9, 2016
    Messages:
    425
    Likes Received:
    4
    thanks!
     
  21. issamtohme

    issamtohme Active Member

    Joined:
    Oct 14, 2015
    Messages:
    383
    Likes Received:
    127
    thnks